VERSION	0.00.00	1.03.00
FES_MODE	0
BPM_DEF	165.000	165.000	165.000	165.000
MET_DEF	4	4
RESOLUTION	384
CLK_DEF	384
COMPATIBLE_CODE	MA2

BPM	0	0	165.000
MET	0	0	4	4

BST	2	336	3
SCL	2	336	3	96	912	4
BRK	2	336	4
THO	6	0	0	384	C	0	M1
BRK	7	192	0
BST	7	192	7
SCL	7	192	7	96	672	0
TTP	10	0	0	B	0	M1
TTP	10	0	0	C	1	M1
TTP	10	0	0	E	0	M1
TTP	10	0	3	B	0	M1
TTP	10	0	4	B	0	M1
TTP	10	0	4	E	0	M1
TTP	10	0	7	B	0	M1
XHO	11	0	1	384
XTP	11	288	3
XTP	11	336	3
XHO	12	0	3	384
XTP	12	288	4
XTP	12	336	4
XHO	13	0	4	384
XTP	13	288	6
XTP	13	336	6
XHO	14	0	6	192
XTP	14	144	4
XTP	14	192	4
XTP	14	288	3
XTP	14	288	4
XST	15	0	2
SCR	15	0	2	96	144	5
TAP	15	192	6
TAP	15	288	6
XST	16	0	5
SCL	16	0	5	96	144	2
TAP	16	192	1
TAP	16	288	1
STR	17	0	0
SUL	17	0	0	96	192	3
STR	17	0	7
SUR	17	0	7	96	192	4
HLD	18	0	2	96
HLD	18	0	5	96
TAP	18	192	3
TAP	18	192	4
BRK	18	288	0
BRK	18	288	6
STR	19	0	1
SI_	19	0	1	96	48	7
TAP	19	0	3
STR	19	96	6
SI_	19	96	6	96	48	2
TAP	19	192	3
TAP	19	288	1
TAP	19	288	3
TAP	20	0	4
STR	20	0	6
SI_	20	0	6	96	48	0
STR	20	96	1
SI_	20	96	1	96	48	5
TAP	20	192	4
TAP	20	288	4
TAP	20	288	6
STR	21	0	1
SI_	21	0	1	96	48	7
TAP	21	0	3
STR	21	96	6
SI_	21	96	6	96	48	2
TAP	21	192	3
TAP	21	288	1
TAP	21	288	3
TAP	22	0	0
TAP	22	0	7
TAP	22	96	4
TAP	22	96	6
TAP	22	192	2
TAP	22	240	3
XTP	22	288	0
TAP	22	288	4
STR	23	0	1
SI_	23	0	1	96	48	7
TAP	23	0	3
STR	23	96	6
SI_	23	96	6	96	48	2
TAP	23	192	3
TAP	23	288	1
TAP	23	288	4
TAP	24	0	3
STR	24	0	6
SI_	24	0	6	96	48	0
STR	24	96	1
SI_	24	96	1	96	48	5
TAP	24	192	4
TAP	24	288	3
TAP	24	288	6
STR	25	0	1
SI_	25	0	1	96	48	4
STR	25	96	5
SI_	25	96	5	96	48	1
TAP	25	192	0
TAP	25	288	7
STR	26	0	0
SCR	26	0	0	96	96	3
STR	26	0	6
SCL	26	0	6	96	96	3
BRK	26	288	1
BRK	26	288	5
TAP	27	0	3
HLD	27	0	5	96
TAP	27	96	4
TAP	27	192	3
TAP	27	192	6
TAP	27	240	6
TAP	27	288	4
HLD	28	0	6	96
HLD	28	96	5	96
TAP	28	192	4
TAP	28	288	4
TAP	28	288	5
HLD	29	0	2	96
TAP	29	0	4
TAP	29	96	3
TAP	29	192	1
TAP	29	192	4
TAP	29	240	1
TAP	29	288	3
STR	30	0	0
SCR	30	0	0	96	96	3
TAP	30	192	4
TAP	30	288	4
TAP	31	0	3
HLD	31	0	5	96
TAP	31	96	4
TAP	31	192	3
TAP	31	192	6
TAP	31	240	6
TAP	31	288	4
HLD	32	0	7	96
HLD	32	96	6	96
HLD	32	192	5	96
TAP	32	288	4
TAP	33	0	2
TAP	33	48	3
TAP	33	96	1
TAP	33	192	5
TAP	33	240	4
TAP	33	288	6
TAP	34	0	3
TAP	34	0	7
TAP	34	96	4
TAP	34	96	5
TAP	34	192	0
TAP	34	192	4
TAP	34	288	2
TAP	34	288	3
TAP	35	0	1
HLD	35	0	5	144
TAP	35	48	2
TAP	35	96	3
TAP	35	144	4
TAP	35	192	4
TAP	35	192	5
TAP	35	240	3
TAP	35	240	6
TAP	35	288	2
TAP	35	288	7
STR	36	0	1
SCR	36	0	1	96	96	4
TAP	36	192	5
TAP	36	288	6
HLD	37	0	2	144
TAP	37	0	6
TAP	37	48	5
TAP	37	96	4
TAP	37	144	3
TAP	37	192	2
TAP	37	192	3
TAP	37	240	1
TAP	37	240	4
TAP	37	288	0
TAP	37	288	5
STR	38	0	7
SCL	38	0	7	96	96	4
TAP	38	192	2
TAP	38	288	2
TAP	38	288	4
TAP	39	0	2
HLD	39	0	6	144
TAP	39	48	1
TAP	39	96	0
TAP	39	144	7
TAP	39	192	6
TAP	39	192	7
TAP	39	240	0
TAP	39	240	5
TAP	39	288	1
TAP	39	288	4
STR	40	0	2
SI_	40	0	2	96	96	5
TAP	40	96	5
STR	40	192	6
SI_	40	192	6	96	96	1
TAP	40	288	1
TAP	41	0	2
TAP	41	48	2
TAP	41	96	3
TAP	41	144	1
TAP	41	192	5
TAP	41	240	5
TAP	41	288	4
TAP	41	336	6
TAP	42	0	0
TAP	42	96	1
TAP	42	96	3
TAP	42	192	7
TAP	42	288	4
TAP	42	288	6
TAP	43	0	2
TAP	43	0	3
XTP	43	96	0
HLD	43	192	1	72
TAP	43	264	0
TAP	43	336	2
HLD	44	0	2	72
TAP	44	72	3
STR	44	144	1
SCR	44	144	1	96	96	4
TAP	44	144	4
TAP	44	240	5
TAP	44	288	5
TAP	45	0	6
XTP	45	96	6
XTP	45	96	7
HLD	45	192	5	72
TAP	45	264	4
TAP	45	336	6
HLD	46	0	6	72
TAP	46	72	7
TAP	46	144	0
STR	46	144	5
SSR	46	144	5	96	144	1
TAP	47	0	0
TAP	47	96	1
TAP	47	96	3
HLD	47	192	2	72
TAP	47	264	3
TAP	47	336	1
HLD	48	0	1	72
TAP	48	72	0
TAP	48	144	2
STR	48	144	7
SSR	48	144	7	96	144	3
XTP	48	288	0
TAP	49	0	1
TAP	49	48	1
TAP	49	96	4
TAP	49	144	4
TAP	49	192	2
TAP	49	216	5
TAP	49	240	2
TAP	49	264	5
TAP	49	288	1
TAP	49	312	6
TAP	49	336	1
TAP	49	360	6
HLD	50	0	0	192
TTP	50	192	0	C	1	M1
TAP	51	0	0
TAP	51	0	7
TAP	51	96	2
TAP	51	96	3
TTP	51	192	4	B	0	M1
TTP	51	192	5	B	0	M1
TTP	51	192	6	E	0	M1
TTP	51	288	2	B	0	M1
TTP	51	288	2	E	0	M1
TTP	51	288	3	B	0	M1
TAP	52	0	6
TAP	52	0	7
TAP	52	96	4
TAP	52	96	5
TTP	52	192	1	B	0	M1
TTP	52	192	1	E	0	M1
TTP	52	192	2	B	0	M1
TTP	52	192	3	E	0	M1
XTP	52	288	7
TAP	53	0	6
TAP	53	48	6
TAP	53	96	4
TAP	53	144	5
TAP	53	192	7
TAP	53	240	7
TAP	53	288	3
TAP	53	336	3
HLD	54	0	1	96
TAP	54	0	4
TAP	54	96	0
TAP	54	192	2
HLD	54	192	6	96
TAP	54	288	4
TAP	55	0	0
TAP	55	0	7
TAP	55	96	4
TAP	55	96	5
TTP	55	192	2	B	0	M1
TTP	55	192	2	E	0	M1
TTP	55	192	3	B	0	M1
TTP	55	288	4	B	0	M1
TTP	55	288	5	B	0	M1
TTP	55	288	6	E	0	M1
TAP	56	0	0
TAP	56	0	1
TAP	56	96	2
TAP	56	96	3
TTP	56	192	5	B	0	M1
TTP	56	192	5	E	0	M1
TTP	56	192	6	B	0	M1
TTP	56	192	7	E	0	M1
XTP	56	288	0
TAP	57	0	1
TAP	57	48	1
TAP	57	96	3
TAP	57	144	2
TAP	57	192	0
TAP	57	240	0
TAP	57	288	3
TAP	57	336	3
HLD	58	0	7	192
TTP	58	192	0	C	1	M1
XTP	59	0	0
XTP	59	0	7
TAP	59	96	1
TAP	59	96	6
HLD	59	192	3	48
HLD	59	192	5	48
HLD	59	264	3	48
HLD	59	264	5	48
TAP	59	336	3
TAP	59	336	5
HLD	60	0	2	48
HLD	60	0	4	48
HLD	60	72	2	48
HLD	60	72	4	48
TAP	60	144	2
TAP	60	144	4
TAP	60	192	1
TAP	60	240	1
TAP	60	288	0
TAP	60	336	7
HLD	61	0	4	48
HLD	61	0	6	48
HLD	61	72	4	48
HLD	61	72	6	48
HLD	61	144	2	48
HLD	61	144	3	48
HLD	61	216	2	48
HLD	61	216	3	48
TAP	61	288	1
TAP	61	336	0
STR	62	0	7
SI_	62	0	7	96	48	3
TAP	62	96	2
STR	62	192	1
SI_	62	192	1	96	48	5
TAP	62	288	6
HLD	63	0	7	96
HLD	63	96	0	96
TTP	63	192	0	C	1	M1
HLD	64	0	0	48
HLD	64	0	5	48
HLD	64	72	0	48
HLD	64	72	5	48
TAP	64	144	1
TAP	64	144	6
HLD	64	192	2	48
HLD	64	192	7	48
HLD	64	264	2	48
HLD	64	264	7	48
TAP	64	336	0
TAP	64	336	1
TAP	65	0	7
TAP	65	48	7
TAP	65	96	0
TAP	65	144	0
TAP	65	192	3
TAP	65	240	3
STR	65	288	1
SCL	65	288	1	96	192	4
XTP	66	0	4
XTP	66	288	3
XTP	66	288	4
TAP	67	0	2
TAP	67	24	3
TAP	67	48	2
TAP	67	72	3
BRK	67	96	1
TAP	67	144	5
TAP	67	168	4
TAP	67	192	5
TAP	67	216	4
BRK	67	240	6
TAP	67	288	1
TAP	67	312	0
TAP	67	336	1
TAP	67	360	0
BRK	68	0	2
TAP	68	48	6
TAP	68	72	7
TAP	68	96	6
TAP	68	120	7
BRK	68	144	5
TAP	68	192	2
TAP	68	192	3
BRK	68	240	1
BRK	68	240	4
TAP	69	0	5
TAP	69	24	4
TAP	69	48	5
TAP	69	72	4
BRK	69	96	6
TAP	69	144	0
TAP	69	168	7
TAP	69	192	0
TAP	69	216	7
BRK	69	240	1
TAP	69	288	2
TAP	69	288	3
TAP	69	336	2
TAP	69	336	3
BST	70	0	1
SI_	70	0	1	96	48	4
STR	70	48	5
SCR	70	48	5	96	48	0
XTP	70	240	1
BRK	70	288	2
BRK	70	288	7
TAP	71	0	5
TAP	71	24	4
TAP	71	48	5
TAP	71	72	4
BRK	71	96	6
TAP	71	144	2
TAP	71	168	3
TAP	71	192	2
TAP	71	216	3
BRK	71	240	1
TAP	71	288	6
TAP	71	312	7
TAP	71	336	6
TAP	71	360	7
BRK	72	0	5
TAP	72	48	1
TAP	72	72	0
TAP	72	96	1
TAP	72	120	0
BRK	72	144	2
TAP	72	192	4
TAP	72	192	5
BRK	72	240	3
BRK	72	240	6
TAP	73	0	2
TAP	73	24	3
TAP	73	48	2
TAP	73	72	3
BRK	73	96	2
TAP	73	144	6
TAP	73	168	5
TAP	73	192	6
TAP	73	216	5
BRK	73	240	6
TAP	73	288	0
TAP	73	288	1
TAP	73	336	2
STR	74	0	3
SCL	74	0	3	96	48	0
STR	74	48	7
SV_	74	48	7	96	48	4
XTP	74	240	5
BRK	74	288	3
BRK	74	288	6
TAP	75	0	1
TAP	75	24	0
TAP	75	48	1
TAP	75	72	0
BRK	75	96	2
TAP	75	144	5
TAP	75	168	4
TAP	75	192	5
TAP	75	216	4
BRK	75	240	6
TAP	75	288	1
TAP	75	312	0
TAP	75	336	1
TAP	75	360	0
BRK	76	0	3
TAP	76	48	5
TAP	76	72	4
TAP	76	96	5
TAP	76	120	4
BRK	76	144	7
XTP	76	192	0
XTP	76	192	6
BRK	76	240	2
BRK	76	240	4
TAP	77	0	6
TAP	77	24	0
TAP	77	48	6
TAP	77	72	0
BRK	77	96	4
TAP	77	144	1
TAP	77	168	7
TAP	77	192	1
TAP	77	216	7
BRK	77	240	3
TAP	77	288	4
TAP	77	288	5
TAP	77	336	6
BST	78	0	7
SCL	78	0	7	96	48	4
STR	78	48	2
SV_	78	48	2	96	48	7
XTP	78	240	6
BRK	78	288	0
BRK	78	288	5
TTP	79	0	5	E	0	M1
TTP	79	24	5	B	0	M1
TTP	79	48	6	B	0	M1
TTP	79	72	7	E	0	M1
TTP	79	96	2	E	0	M1
TTP	79	120	2	B	0	M1
TTP	79	144	3	B	0	M1
TTP	79	168	4	E	0	M1
TTP	79	192	6	E	0	M1
TTP	79	216	6	B	0	M1
TTP	79	240	7	B	0	M1
TTP	79	264	0	E	0	M1
THO	79	288	0	96	C	0	M1
TTP	80	0	7	E	0	M1
TTP	80	24	6	B	0	M1
TTP	80	48	5	B	0	M1
TTP	80	72	5	E	0	M1
TTP	80	96	2	E	0	M1
TTP	80	120	1	B	0	M1
TTP	80	144	0	B	0	M1
TTP	80	168	0	E	0	M1
TTP	80	192	6	E	0	M1
TTP	80	216	5	B	0	M1
TTP	80	240	4	B	0	M1
TTP	80	264	4	E	0	M1
XHO	80	288	0	96
TAP	81	0	7
TAP	81	24	0
TAP	81	48	7
TAP	81	72	0
TAP	81	96	7
TAP	81	120	0
TAP	81	144	7
TAP	81	168	0
TAP	81	192	7
TAP	81	216	6
TAP	81	240	5
TAP	81	264	4
TAP	81	288	3
TAP	81	312	2
TAP	81	336	1
TAP	81	360	0
TAP	82	0	3
HLD	82	0	7	192
STR	82	192	4
SI_	82	192	4	96	48	0
BRK	82	288	6
XTP	83	0	5
TAP	83	48	5
TAP	83	96	0
TAP	83	144	1
TAP	83	192	2
TAP	83	192	4
TAP	83	264	3
TAP	83	264	5
TAP	83	336	2
TAP	83	336	6
TAP	84	0	1
TAP	84	48	1
TAP	84	96	7
TAP	84	144	6
TAP	84	192	3
TAP	84	192	5
TAP	84	264	2
TAP	84	264	4
TAP	84	336	1
TAP	84	336	5
TAP	85	0	6
TAP	85	48	6
TAP	85	96	0
TAP	85	144	1
TAP	85	192	2
TAP	85	192	4
TAP	85	264	3
TAP	85	264	5
TAP	85	336	4
TAP	85	336	6
STR	86	0	4
SI_	86	0	4	96	48	0
TAP	86	0	6
STR	86	96	7
SI_	86	96	7	96	48	3
TAP	86	192	2
BRK	86	288	1
BRK	86	288	5
TAP	87	0	6
TAP	87	48	6
TAP	87	96	3
TAP	87	144	2
TAP	87	192	0
TAP	87	192	1
TAP	87	264	6
TAP	87	264	7
TAP	87	336	0
TAP	87	336	5
TAP	88	0	1
TAP	88	48	1
TAP	88	96	4
TAP	88	144	5
TAP	88	192	6
TAP	88	192	7
TAP	88	264	0
TAP	88	264	1
TAP	88	336	2
TAP	88	336	7
TAP	89	0	6
TAP	89	48	6
TAP	89	96	4
TAP	89	144	3
XTP	89	192	2
XTP	89	192	4
XTP	89	264	3
XTP	89	264	5
TAP	89	336	2
TAP	89	336	6
STR	90	0	7
SI_	90	0	7	96	48	3
STR	90	48	1
SI_	90	48	1	96	48	5
TAP	90	240	0
TAP	90	240	6
BRK	90	288	1
BRK	90	288	5
TAP	91	0	2
TAP	91	48	2
TAP	91	72	3
TAP	91	120	3
TAP	91	144	1
TAP	91	192	0
TAP	91	192	1
TAP	91	240	7
TAP	91	288	6
TAP	91	336	5
TAP	92	0	6
TAP	92	48	6
TAP	92	72	7
TAP	92	120	7
TAP	92	144	5
TAP	92	192	4
TAP	92	192	5
TAP	92	240	4
TAP	92	240	5
TAP	92	288	3
TAP	92	288	6
TAP	93	0	2
TAP	93	48	2
TAP	93	72	3
TAP	93	120	3
TAP	93	144	1
TAP	93	192	5
TAP	93	240	5
TAP	93	264	4
TAP	93	312	4
TAP	93	336	6
TAP	94	0	1
TAP	94	48	1
TAP	94	72	0
TAP	94	120	0
TAP	94	144	2
TAP	94	192	2
TAP	94	192	3
TAP	94	240	1
TAP	94	240	4
BRK	94	288	0
BRK	94	288	5
HLD	95	0	6	72
HLD	95	72	4	72
HLD	95	144	3	72
HLD	95	216	1	72
HLD	95	288	6	72
HLD	95	360	4	72
HLD	96	48	3	72
HLD	96	120	1	72
TAP	96	192	0
BRK	96	264	2
BRK	96	264	7
BRK	97	0	1
TAP	97	24	0
TAP	97	48	1
TAP	97	72	0
BRK	97	96	2
TAP	97	120	7
TAP	97	144	2
TAP	97	168	7
BRK	97	192	3
TAP	97	216	6
TAP	97	240	3
TAP	97	264	6
BRK	97	288	4
TAP	97	312	5
TAP	97	336	4
TAP	97	360	5
BRK	98	0	7
TAP	98	24	6
TAP	98	48	7
TAP	98	72	6
BRK	98	96	0
TAP	98	120	5
TAP	98	144	0
TAP	98	168	5
BRK	98	192	1
TAP	98	216	4
TAP	98	240	1
TAP	98	264	4
BRK	98	288	2
TAP	98	312	3
TAP	98	336	2
TAP	98	360	3
TTP	99	0	0	C	1	M1

T_REC_TAP	443
T_REC_BRK	53
T_REC_XTP	32
T_REC_HLD	58
T_REC_XHO	5
T_REC_STR	36
T_REC_BST	4
T_REC_XST	2
T_REC_TTP	55
T_REC_THO	2
T_REC_SLD	42
T_REC_ALL	732
T_NUM_TAP	568
T_NUM_BRK	57
T_NUM_HLD	65
T_NUM_SLD	42
T_NUM_ALL	732
T_JUDGE_TAP	625
T_JUDGE_HLD	141
T_JUDGE_SLD	42
T_JUDGE_ALL	808
TTM_EACHPAIRS	127
TTM_SCR_TAP	284000
TTM_SCR_BRK	148200
TTM_SCR_HLD	65000
TTM_SCR_SLD	63000
TTM_SCR_ALL	560200
TTM_SCR_S	537900
TTM_SCR_SS	554500
TTM_RAT_ACV	10102

