VERSION	0.00.00	1.03.00
FES_MODE	0
BPM_DEF	165.000	165.000	165.000	165.000
MET_DEF	4	4
RESOLUTION	384
CLK_DEF	384
COMPATIBLE_CODE	MA2

BPM	0	0	165.000
MET	0	0	4	4

XST	3	0	3
SCL	3	0	3	96	864	4
XTP	3	0	4
TAP	6	0	6
TAP	6	192	5
TAP	7	0	4
HLD	7	96	4	576
TAP	7	288	3
TAP	8	96	2
TAP	8	288	2
TAP	9	0	1
TAP	9	96	1
TAP	9	192	0
TAP	9	288	0
BRK	10	0	1
BRK	10	0	6
TAP	11	0	4
STR	11	0	5
SXL	11	0	5	96	480	1
TAP	13	0	0
STR	13	0	1
SXL	13	0	1	96	480	5
TAP	15	0	6
TAP	15	96	6
TAP	15	192	7
TAP	15	288	7
TAP	16	0	0
TAP	16	96	0
TAP	16	192	1
TAP	16	288	1
TAP	17	0	2
TAP	17	48	2
TAP	17	96	2
TAP	17	192	3
TAP	17	240	3
TAP	17	288	3
BST	18	0	3
SV_	18	0	3	96	144	0
BST	18	0	4
SV_	18	0	4	96	144	7
TAP	19	0	1
TAP	19	96	1
TAP	19	192	0
TAP	19	192	1
TAP	19	288	2
TAP	19	288	7
TAP	20	0	6
TAP	20	96	6
TAP	20	192	6
TAP	20	192	7
TAP	20	288	0
TAP	20	288	5
TAP	21	0	4
TAP	21	96	4
TAP	21	192	3
TAP	21	288	3
TAP	22	0	2
TAP	22	0	3
TAP	22	96	2
TAP	22	96	3
BRK	22	192	1
BRK	22	192	4
TAP	23	0	5
TAP	23	96	5
TAP	23	192	4
TAP	23	192	5
TAP	23	288	3
TAP	23	288	6
TAP	24	0	2
TAP	24	96	2
TAP	24	192	2
TAP	24	192	3
TAP	24	288	1
TAP	24	288	4
TAP	25	0	0
TAP	25	96	0
TAP	25	192	7
TAP	25	288	7
TAP	26	0	0
TAP	26	0	7
XTP	26	96	0
XTP	26	96	7
XTP	26	192	1
XTP	26	192	6
HLD	27	0	2	96
TAP	27	96	3
TAP	27	192	2
TAP	27	192	3
STR	28	0	1
SI_	28	0	1	96	144	4
HLD	29	0	5	96
TAP	29	96	4
TAP	29	192	4
TAP	29	192	5
STR	30	0	6
SI_	30	0	6	96	144	2
HLD	31	0	1	96
TAP	31	96	0
TAP	31	192	0
TAP	31	192	1
STR	32	0	2
SI_	32	0	2	96	144	7
HLD	33	0	6	96
TAP	33	96	7
TAP	33	192	6
TAP	33	192	7
BST	34	0	0
SI_	34	0	0	96	144	4
BST	34	0	7
SI_	34	0	7	96	144	3
TAP	35	0	2
TAP	35	96	2
TAP	35	192	3
TAP	35	288	3
TAP	36	0	4
TAP	36	0	5
TAP	36	96	4
TAP	36	96	5
TAP	36	192	3
TAP	36	192	6
TAP	37	0	6
TAP	37	96	6
TAP	37	192	7
TAP	37	288	7
TAP	38	0	0
TAP	38	0	7
TAP	38	96	0
TAP	38	96	7
TAP	38	192	1
TAP	38	192	6
TAP	39	0	6
TAP	39	96	6
TAP	39	192	5
TAP	39	288	5
TAP	40	0	4
TAP	40	0	5
TAP	40	96	4
TAP	40	96	5
TAP	40	192	3
TAP	40	192	6
TAP	41	0	2
TAP	41	96	2
TAP	41	192	3
TAP	41	288	3
TAP	42	0	3
TAP	42	0	4
TAP	42	96	2
TAP	42	96	5
BRK	42	192	1
BRK	42	192	6
STR	43	0	1
SV_	43	0	1	96	144	4
STR	44	0	5
SV_	44	0	5	96	144	0
STR	45	0	1
SI_	45	0	1	96	144	5
STR	46	0	7
SI_	46	0	7	96	144	3
TAP	47	0	2
TAP	47	96	2
TAP	47	192	2
TAP	47	192	3
TAP	48	0	5
TAP	48	96	5
TAP	48	192	4
TAP	48	192	5
TAP	49	0	3
TAP	49	96	3
TAP	49	192	4
TAP	49	288	4
TAP	50	0	3
TAP	50	0	4
TAP	50	96	2
TAP	50	96	5
TAP	50	192	1
TAP	50	192	6
BRK	51	0	0
BRK	51	0	7
TTP	51	192	2	B	0	L1
TTP	51	192	3	E	0	L1
TTP	52	0	6	B	0	L1
TTP	52	0	7	E	0	L1
TTP	52	192	4	B	0	L1
TTP	52	192	5	E	0	L1
TTP	53	0	1	B	0	L1
TTP	53	96	2	B	0	L1
TTP	53	192	3	E	0	L1
TTP	54	0	5	E	0	L1
TTP	54	96	5	B	0	L1
TTP	54	192	6	B	0	L1
TTP	55	0	0	B	0	L1
TTP	55	0	1	E	0	L1
TTP	55	192	2	B	0	L1
TTP	55	192	2	E	0	L1
TTP	56	0	7	B	0	L1
TTP	56	0	7	E	0	L1
TTP	56	192	5	B	0	L1
TTP	56	192	6	E	0	L1
TTP	57	0	3	E	0	L1
TTP	57	96	2	B	0	L1
TTP	57	192	1	B	0	L1
TTP	58	0	6	B	0	L1
TTP	58	96	5	B	0	L1
TTP	58	192	5	E	0	L1
XTP	59	0	2
TAP	59	96	2
TAP	59	192	1
TAP	59	288	1
TAP	60	0	0
TAP	60	96	0
TAP	60	192	0
TAP	60	192	7
TAP	61	0	6
TAP	61	96	6
TAP	61	192	5
TAP	61	288	5
TAP	62	0	3
TAP	62	0	4
TAP	62	96	3
TAP	62	96	4
BRK	62	192	2
BRK	62	192	5
TAP	63	0	5
TAP	63	96	5
TAP	63	192	6
TAP	63	288	6
TAP	64	0	7
TAP	64	96	7
TAP	64	192	0
TAP	64	288	0
TAP	65	0	1
TAP	65	48	1
TAP	65	96	1
TAP	65	192	2
TAP	65	240	2
TAP	65	288	2
BRK	66	0	3
BRK	66	0	4
TAP	67	0	5
TAP	67	48	5
TAP	67	96	4
TAP	67	192	4
TAP	67	192	5
TAP	67	288	3
TAP	67	288	6
HLD	68	0	2	96
TAP	68	96	3
BRK	68	192	1
BRK	68	192	4
TAP	69	0	1
TAP	69	48	1
TAP	69	96	0
TAP	69	192	0
TAP	69	192	1
TAP	69	288	2
TAP	69	288	7
XTP	70	0	3
XTP	70	0	6
XTP	70	96	2
XTP	70	96	5
XTP	70	192	1
XTP	70	192	6
TAP	71	0	2
TAP	71	48	2
TAP	71	96	3
TAP	71	192	2
TAP	71	192	3
TAP	71	288	1
TAP	71	288	4
HLD	72	0	5	96
TAP	72	96	4
BRK	72	192	3
BRK	72	192	6
TAP	73	0	6
TAP	73	48	6
TAP	73	96	7
TAP	73	192	6
TAP	73	192	7
TAP	73	288	0
TAP	73	288	5
TAP	74	0	1
TAP	74	0	6
TAP	74	96	2
TAP	74	96	5
TAP	74	192	3
TAP	74	192	4
TAP	75	0	5
TAP	75	48	5
TAP	75	96	4
TAP	75	192	4
TAP	75	192	5
TAP	75	288	6
TAP	75	336	6
TAP	76	0	7
TAP	76	96	6
TAP	76	96	7
BRK	76	192	0
BRK	76	192	5
TAP	77	0	1
TAP	77	48	1
TAP	77	96	0
TAP	77	192	0
TAP	77	192	1
TAP	77	288	2
TAP	77	336	2
XTP	78	0	3
XTP	78	0	4
XTP	78	96	2
XTP	78	96	5
XTP	78	192	1
XTP	78	192	6
TAP	79	0	2
TAP	79	48	2
TAP	79	96	3
TAP	79	192	2
TAP	79	192	3
TAP	79	288	1
TAP	79	336	1
TAP	80	0	0
TAP	80	96	0
TAP	80	96	1
BRK	80	192	2
BRK	80	192	7
TAP	81	0	6
TAP	81	48	6
TAP	81	96	7
TAP	81	192	6
TAP	81	192	7
TAP	81	288	5
TAP	81	336	5
HLD	82	0	3	96
HLD	82	0	4	96
TAP	82	192	3
TAP	82	192	4
BRK	82	288	2
BRK	82	288	5
HLD	83	0	1	192
TAP	83	192	0
TAP	83	288	7
HLD	84	0	6	192
TAP	84	192	7
TAP	84	288	0
HLD	85	0	1	192
TAP	85	192	7
HLD	85	288	7	96
TAP	86	0	0
TAP	86	96	1
TAP	86	96	6
TAP	86	192	2
TAP	86	192	5
BRK	86	288	3
BRK	86	288	4
HLD	87	0	5	192
TAP	87	192	4
TAP	87	288	3
HLD	88	0	2	192
TAP	88	192	3
TAP	88	288	4
HLD	89	0	5	192
TAP	89	192	3
HLD	89	288	3	96
TAP	90	0	4
TAP	90	96	2
TAP	90	96	5
TAP	90	192	1
TAP	90	192	6
BRK	90	288	0
BRK	90	288	7
TAP	91	0	7
TAP	91	96	6
TAP	91	192	5
TAP	91	288	4
TAP	92	0	3
TAP	92	96	2
TAP	92	192	1
TAP	92	288	0
TAP	93	0	0
TAP	93	96	1
TAP	93	192	2
TAP	93	288	3
TAP	94	0	4
TAP	94	96	5
TAP	94	192	6
TAP	94	288	7
TAP	95	0	6
TAP	95	0	7
TAP	95	96	0
TAP	95	96	5
TAP	95	192	1
TAP	95	192	4
TAP	95	288	2
TAP	95	288	3
TAP	96	0	0
TAP	96	0	1
TAP	96	96	2
TAP	96	96	7
TAP	96	192	3
TAP	96	192	6
TAP	96	288	4
TAP	96	288	5
BRK	97	0	6
TAP	97	48	6
TAP	97	96	6
BRK	97	192	7
TAP	97	240	7
TAP	97	288	7
BRK	98	0	0
TAP	98	48	0
TAP	98	96	0
BRK	98	192	1
TAP	98	240	1
TAP	98	288	1
BRK	99	0	0
BRK	99	0	7

T_REC_TAP	293
T_REC_BRK	32
T_REC_XTP	18
T_REC_HLD	17
T_REC_XHO	0
T_REC_STR	9
T_REC_BST	4
T_REC_XST	1
T_REC_TTP	26
T_REC_THO	0
T_REC_SLD	14
T_REC_ALL	414
T_NUM_TAP	347
T_NUM_BRK	36
T_NUM_HLD	17
T_NUM_SLD	14
T_NUM_ALL	414
T_JUDGE_TAP	383
T_JUDGE_HLD	56
T_JUDGE_SLD	14
T_JUDGE_ALL	453
TTM_EACHPAIRS	92
TTM_SCR_TAP	173500
TTM_SCR_BRK	93600
TTM_SCR_HLD	17000
TTM_SCR_SLD	21000
TTM_SCR_ALL	305100
TTM_SCR_S	292500
TTM_SCR_SS	301500
TTM_RAT_ACV	10119

