VERSION	0.00.00	1.03.00
FES_MODE	0
BPM_DEF	165.000	165.000	165.000	165.000
MET_DEF	4	4
RESOLUTION	384
CLK_DEF	384
COMPATIBLE_CODE	MA2

BPM	0	0	165.000
MET	0	0	4	4

XTP	3	0	0
TAP	5	0	0
TAP	7	0	7
TAP	9	0	7
TAP	11	0	0
TAP	12	0	0
TAP	13	0	1
TAP	14	0	1
TAP	15	0	2
TAP	16	0	2
TAP	17	0	3
BRK	18	0	3
BRK	18	0	4
TAP	19	0	4
TAP	19	192	4
TAP	20	0	4
TAP	21	0	5
TAP	21	192	5
TAP	22	0	5
TAP	23	0	6
TAP	23	192	6
TAP	24	0	6
TAP	25	0	7
TAP	25	192	7
BRK	26	0	0
BRK	26	0	7
HLD	27	0	7	384
HLD	29	0	6	384
HLD	31	0	5	384
HLD	33	0	3	384
HLD	33	0	4	384
HLD	35	0	3	192
TAP	36	0	3
HLD	37	0	2	192
TAP	38	0	2
HLD	39	0	1	192
TAP	40	0	1
HLD	41	0	0	192
HLD	41	0	7	192
BRK	42	0	0
BRK	42	0	7
TAP	43	0	0
TAP	43	96	0
TAP	43	192	0
TAP	44	0	1
TAP	44	192	1
TAP	45	0	2
TAP	45	96	2
TAP	45	192	2
TAP	46	0	3
TAP	46	0	4
TAP	46	192	3
TAP	46	192	4
TAP	47	0	4
TAP	47	96	4
TAP	47	192	4
TAP	48	0	5
TAP	48	192	5
TAP	49	0	6
TAP	49	96	6
TAP	49	192	6
BRK	50	0	0
BRK	50	0	7
STR	51	0	0
SI_	51	0	0	96	288	3
STR	53	0	7
SI_	53	0	7	96	288	4
STR	55	0	0
SI_	55	0	0	96	288	4
STR	57	0	7
SI_	57	0	7	96	288	3
STR	59	0	1
SI_	59	0	1	96	288	4
STR	61	0	6
SI_	61	0	6	96	288	3
STR	63	0	1
SI_	63	0	1	96	288	5
STR	65	0	6
SI_	65	0	6	96	288	2
BRK	67	0	0
TAP	67	96	0
TAP	67	192	0
TAP	68	0	1
TAP	68	96	1
TAP	68	192	1
TAP	69	0	2
TAP	69	96	2
TAP	69	192	2
TAP	70	0	3
TAP	70	96	4
TAP	70	192	3
TAP	70	192	4
BRK	71	0	4
TAP	71	96	4
TAP	71	192	4
TAP	72	0	5
TAP	72	96	5
TAP	72	192	5
TAP	73	0	6
TAP	73	96	6
TAP	73	192	6
TAP	74	0	0
TAP	74	0	7
XTP	74	192	0
XTP	74	192	7
BRK	75	0	7
TAP	75	96	7
TAP	75	192	6
TAP	75	288	6
TAP	76	0	5
TAP	76	96	5
TAP	76	192	4
TAP	76	192	5
BRK	77	0	3
TAP	77	96	3
TAP	77	192	2
TAP	77	288	2
TAP	78	0	1
TAP	78	96	1
TAP	78	192	0
TAP	78	192	1
TAP	79	0	7
TAP	79	96	7
TAP	79	192	6
TAP	79	192	7
TAP	80	0	0
TAP	80	96	0
TAP	80	192	0
TAP	80	192	1
TAP	81	0	0
TAP	81	0	7
TAP	81	96	0
TAP	81	96	7
TAP	81	192	0
TAP	81	192	7
BRK	82	0	1
BRK	82	0	6
TAP	83	0	0
TAP	83	192	0
TAP	83	192	1
TAP	84	0	2
TAP	84	192	2
TAP	84	192	3
TAP	85	0	4
TAP	85	192	4
TAP	86	0	3
TAP	86	0	5
TAP	86	96	3
TAP	86	96	5
TAP	86	192	3
TAP	86	192	5
TAP	87	0	4
TAP	87	192	4
TAP	87	192	5
TAP	88	0	6
TAP	88	192	6
TAP	88	192	7
TAP	89	0	0
TAP	89	192	0
TAP	90	0	1
TAP	90	0	7
TAP	90	96	1
TAP	90	96	7
TAP	90	192	1
TAP	90	192	7
BRK	91	0	0
TAP	91	96	0
TAP	91	192	7
TAP	91	288	7
TAP	92	0	6
TAP	92	96	6
TAP	92	192	5
TAP	92	288	5
TAP	93	0	4
TAP	93	96	4
TAP	93	192	3
TAP	93	288	3
TAP	94	0	2
TAP	94	96	2
TAP	94	192	1
TAP	94	288	1
TAP	95	0	0
TAP	95	96	1
TAP	95	192	2
TAP	95	288	3
TAP	96	0	4
TAP	96	96	5
TAP	96	192	6
TAP	96	288	7
TAP	97	0	0
TAP	97	0	7
TAP	97	96	0
TAP	97	96	7
TAP	97	192	1
TAP	97	192	6
TAP	97	288	1
TAP	97	288	6
TAP	98	0	2
TAP	98	0	5
TAP	98	96	2
TAP	98	96	5
TAP	98	192	3
TAP	98	192	4
TAP	98	288	3
TAP	98	288	4
BRK	99	0	2
BRK	99	0	5

T_REC_TAP	161
T_REC_BRK	17
T_REC_XTP	3
T_REC_HLD	10
T_REC_XHO	0
T_REC_STR	8
T_REC_BST	0
T_REC_XST	0
T_REC_TTP	0
T_REC_THO	0
T_REC_SLD	8
T_REC_ALL	207
T_NUM_TAP	172
T_NUM_BRK	17
T_NUM_HLD	10
T_NUM_SLD	8
T_NUM_ALL	207
T_JUDGE_TAP	189
T_JUDGE_HLD	60
T_JUDGE_SLD	8
T_JUDGE_ALL	257
TTM_EACHPAIRS	38
TTM_SCR_TAP	86000
TTM_SCR_BRK	44200
TTM_SCR_HLD	10000
TTM_SCR_SLD	12000
TTM_SCR_ALL	152200
TTM_SCR_S	146000
TTM_SCR_SS	150500
TTM_RAT_ACV	10112

