VERSION	0.00.00	1.03.00
FES_MODE	0
BPM_DEF	222.000	222.000	222.000	222.000
MET_DEF	4	4
RESOLUTION	384
CLK_DEF	384
COMPATIBLE_CODE	MA2

BPM	0	0	222.000
MET	0	0	4	4
MET	14	0	4	2
MET	14	192	4	4

HLD	2	0	2	384
TAP	2	0	4
TTP	2	192	4	E	0	M1
HLD	3	0	6	384
TTP	3	192	0	C	0	M1
STR	4	0	0
SSL	4	0	0	96	192	4
HLD	5	0	5	192
TAP	5	192	2
TAP	5	288	3
TAP	5	288	4
BRK	6	0	1
BRK	6	0	6
TAP	6	48	5
TAP	6	72	4
TAP	6	96	5
TAP	6	144	3
TAP	6	144	6
TAP	6	192	2
TAP	6	240	7
TAP	6	288	0
TAP	6	336	5
TAP	7	0	1
TAP	7	0	4
TAP	7	48	2
TAP	7	72	3
TAP	7	96	2
TAP	7	144	1
TAP	7	144	4
TAP	7	192	5
TAP	7	240	0
TAP	7	288	7
TAP	7	336	2
TAP	8	0	3
TAP	8	0	6
TAP	8	48	5
TAP	8	72	4
TAP	8	96	5
TAP	8	144	3
TAP	8	144	6
TAP	8	192	2
TAP	8	240	7
TAP	8	288	0
TAP	8	336	5
TAP	9	0	1
TAP	9	24	3
TAP	9	48	1
TAP	9	96	6
TAP	9	120	4
TAP	9	144	6
TAP	9	192	0
TAP	9	192	5
STR	10	0	2
SI_	10	0	2	96	48	7
TAP	10	48	2
STR	10	96	6
SI_	10	96	6	96	48	3
TAP	10	144	6
TAP	10	192	2
TTP	10	288	2	B	0	M1
TTP	10	288	2	E	0	M1
TTP	10	288	3	B	0	M1
STR	11	0	5
SI_	11	0	5	96	48	0
TAP	11	48	5
STR	11	96	1
SI_	11	96	1	96	48	4
TAP	11	144	1
TAP	11	192	5
TTP	11	288	4	B	0	M1
TTP	11	288	5	B	0	M1
TTP	11	288	6	E	0	M1
STR	12	0	2
SCL	12	0	2	96	48	7
TAP	12	48	2
STR	12	96	6
SCL	12	96	6	96	48	3
TAP	12	144	6
TAP	12	192	2
TAP	12	240	2
TAP	12	288	7
TAP	12	336	7
TAP	13	0	0
TAP	13	48	0
TAP	13	96	5
TAP	13	144	5
TAP	13	192	1
TAP	13	216	7
TAP	13	240	1
TAP	13	264	7
TAP	13	288	1
TAP	13	312	7
TAP	13	336	1
TAP	13	360	7
TAP	14	0	1
TAP	14	12	2
TAP	14	24	3
TAP	14	36	4
TAP	14	48	5
TAP	14	60	6
TAP	14	72	7
TAP	14	84	0
TAP	14	96	1
TAP	14	108	2
TAP	14	120	3
TAP	14	132	4
TAP	14	144	5
TAP	14	156	6
TAP	14	168	7
TAP	14	180	0
BRK	14	192	1
TAP	14	288	2
TAP	14	288	3
STR	15	0	4
SI_	15	0	4	96	48	6
TAP	15	48	4
TAP	15	96	0
TAP	15	144	1
STR	15	192	7
SI_	15	192	7	96	48	3
TAP	15	240	7
TAP	15	288	2
TAP	15	336	1
STR	16	0	4
SI_	16	0	4	96	48	6
TAP	16	48	4
TAP	16	96	0
TAP	16	192	3
TAP	16	192	7
TAP	16	240	3
TAP	16	288	3
TAP	16	288	6
TAP	16	336	3
TAP	17	0	3
TAP	17	0	5
TAP	17	48	3
TAP	17	96	3
TAP	17	96	4
TTP	17	192	3	B	0	M1
TTP	17	216	4	B	0	M1
TTP	17	240	2	B	0	M1
TTP	17	264	5	B	0	M1
TTP	17	288	2	E	0	M1
TTP	17	312	6	E	0	M1
TTP	17	336	1	E	0	M1
TTP	17	360	7	E	0	M1
TTP	18	0	0	C	0	M1
TTP	18	0	0	E	0	M1
TAP	18	192	4
TAP	18	192	5
TTP	19	0	0	B	0	M1
TTP	19	0	0	E	0	M1
TTP	19	0	1	B	0	M1
TTP	19	0	2	E	0	M1
TAP	19	192	2
TAP	19	288	3
TTP	20	0	0	E	0	M1
TTP	20	0	6	B	0	M1
TTP	20	0	6	E	0	M1
TTP	20	0	7	B	0	M1
TAP	20	192	4
TAP	20	192	5
TTP	21	0	0	B	0	M1
TTP	21	0	0	E	0	M1
TTP	21	0	1	B	0	M1
TTP	21	0	2	E	0	M1
TAP	21	192	3
TAP	21	192	4
TTP	22	0	2	B	0	M1
TTP	22	0	2	E	0	M1
TTP	22	0	5	B	0	M1
TTP	22	0	6	E	0	M1
STR	22	192	1
SI_	22	192	1	96	48	3
TAP	22	240	0
TAP	22	288	1
STR	22	336	6
SI_	22	336	6	96	48	4
TAP	23	0	7
TAP	23	48	6
TAP	23	144	1
STR	23	192	1
SUR	23	192	1	96	48	5
TAP	23	192	4
TAP	23	240	5
TAP	23	288	6
HLD	23	336	7	96
TAP	24	48	0
TAP	24	144	1
TAP	24	144	6
STR	24	192	5
SI_	24	192	5	96	48	7
TAP	24	240	4
TAP	24	288	5
STR	24	336	2
SI_	24	336	2	96	48	0
TAP	25	0	3
TAP	25	48	2
TAP	25	144	6
TAP	25	192	0
TAP	25	192	6
TAP	25	240	5
TAP	25	288	4
TAP	25	336	2
TAP	25	336	3
TAP	26	48	1
TAP	26	48	6
TAP	26	192	4
TAP	26	192	5
TTP	27	0	0	B	0	M1
TTP	27	0	0	E	0	M1
TTP	27	0	1	B	0	M1
TTP	27	0	2	E	0	M1
TAP	27	192	2
TAP	27	288	3
TTP	28	0	0	E	0	M1
TTP	28	0	6	B	0	M1
TTP	28	0	6	E	0	M1
TTP	28	0	7	B	0	M1
TAP	28	192	4
TAP	28	192	5
TTP	29	0	0	B	0	M1
TTP	29	0	0	E	0	M1
TTP	29	0	1	B	0	M1
TTP	29	0	2	E	0	M1
TAP	29	192	3
TAP	29	192	4
TAP	30	0	0
TAP	30	0	7
BRK	30	192	1
TAP	30	224	3
TAP	30	256	2
TAP	30	288	6
TAP	30	320	4
TAP	30	352	5
TAP	31	0	1
TAP	31	32	3
TAP	31	64	1
TAP	31	96	6
TAP	31	128	4
TAP	31	160	6
TAP	31	192	2
TAP	31	224	3
TAP	31	256	1
TAP	31	288	5
TAP	31	320	4
TAP	31	352	6
TAP	32	0	2
TAP	32	32	0
TAP	32	64	2
TAP	32	96	5
TAP	32	128	7
TAP	32	160	5
STR	32	192	0
SF_	32	192	0	96	48	4
STR	33	0	7
SF_	33	0	7	96	48	3
TTP	33	192	0	B	0	M1
TTP	33	192	0	C	1	M1
TTP	33	192	0	E	0	M1
TTP	33	192	1	B	0	M1
TTP	33	192	1	E	0	M1
TTP	33	192	5	B	0	M1
TTP	33	192	6	B	0	M1
TTP	33	192	6	E	0	M1
TTP	33	192	7	B	0	M1
TTP	33	192	7	E	0	M1
HLD	34	192	1	96
TAP	34	192	3
TAP	34	288	0
HLD	34	336	2	96
TAP	34	336	7
TAP	35	48	3
HLD	35	96	1	96
TAP	35	96	4
TAP	35	192	0
TAP	35	288	7
TAP	35	312	6
TAP	35	336	5
TAP	35	360	4
TAP	36	0	1
TAP	36	24	2
TAP	36	48	3
TAP	36	72	4
TAP	36	96	7
TAP	36	192	4
HLD	36	192	6	96
TAP	36	288	7
TAP	36	336	0
HLD	36	336	5	96
TAP	37	48	4
TAP	37	96	3
HLD	37	96	6	96
TAP	37	192	7
TAP	37	288	0
TAP	37	312	1
TAP	37	336	2
TAP	37	360	3
TAP	38	0	6
TAP	38	24	5
TAP	38	48	4
TAP	38	72	3
TAP	38	96	0
STR	38	192	1
SI_	38	192	1	96	48	4
TAP	38	192	7
TAP	38	288	4
STR	38	336	5
SI_	38	336	5	96	48	0
TAP	39	48	1
TAP	39	96	2
STR	39	144	3
SI_	39	144	3	96	48	7
TAP	39	240	4
TAP	39	288	5
TAP	39	336	0
TAP	39	336	6
TAP	40	48	1
TAP	40	48	7
TAP	40	144	5
TAP	40	192	4
TAP	40	192	6
TAP	40	288	2
TAP	40	336	1
TAP	40	336	3
TAP	41	48	4
STR	41	96	3
SUR	41	96	3	96	288	4
STR	41	144	4
SUL	41	144	4	96	240	3
TAP	42	192	2
TAP	42	216	3
TAP	42	240	2
TAP	42	264	3
TAP	42	288	1
TAP	42	312	4
TAP	42	336	1
TAP	42	360	4
TAP	43	0	0
TAP	43	24	5
TAP	43	48	0
TAP	43	72	5
TAP	43	96	7
TAP	43	120	6
TAP	43	144	7
TAP	43	168	6
TAP	43	192	4
TAP	43	216	5
TAP	43	240	4
TAP	43	264	5
TAP	43	288	3
TAP	43	312	6
TAP	43	336	3
TAP	43	360	6
TAP	44	0	2
TAP	44	24	7
TAP	44	48	2
TAP	44	72	7
TAP	44	96	1
TAP	44	120	0
TAP	44	144	1
TAP	44	168	0
TAP	44	192	2
TAP	44	216	3
TAP	44	240	2
TAP	44	264	3
TAP	44	288	1
TAP	44	312	4
TAP	44	336	1
TAP	44	360	4
TAP	45	0	0
TAP	45	24	5
TAP	45	48	0
TAP	45	72	5
TAP	45	96	7
TAP	45	120	6
TAP	45	144	7
TAP	45	168	6
BRK	45	192	0
TAP	45	208	1
TAP	45	224	2
TAP	45	240	3
TAP	45	256	4
TAP	45	272	5
TAP	45	288	6
TAP	45	304	7
TAP	45	320	0
BRK	45	336	5
TAP	45	352	4
TAP	45	368	3
TAP	46	0	2
TAP	46	16	1
TAP	46	32	0
TAP	46	48	7
TAP	46	64	6
TAP	46	80	5
TAP	46	96	4
HLD	46	192	2	144
TAP	46	288	3
STR	46	336	3
SI_	46	336	3	96	48	5
TAP	47	48	1
TAP	47	144	0
TAP	47	192	0
HLD	47	192	6	96
TAP	47	288	4
STR	47	336	4
SI_	47	336	4	96	48	1
STR	48	48	5
SI_	48	48	5	96	48	0
TAP	48	144	0
TAP	48	240	1
TAP	48	288	3
TAP	48	336	2
TAP	49	0	5
TAP	49	48	4
TAP	49	96	6
STR	49	144	0
SLR	49	144	0	96	96	4
TAP	49	240	4
TAP	49	336	6
TAP	50	0	6
TAP	50	48	4
TAP	50	96	5
TAP	50	144	3
HLD	50	192	4	192
TTP	50	288	5	E	0	M1
TTP	50	288	6	E	0	M1
HLD	51	0	3	192
TTP	51	96	2	E	0	M1
TTP	51	96	3	E	0	M1
HLD	51	192	5	192
TTP	51	288	6	E	0	M1
TTP	51	288	7	E	0	M1
HLD	52	0	2	192
TTP	52	96	1	E	0	M1
TTP	52	96	2	E	0	M1
HLD	52	192	7	192
TAP	52	288	0
TAP	53	0	1
TAP	53	96	2
TAP	53	144	3
TAP	53	192	1
TAP	53	288	2
TAP	53	288	5
TAP	54	0	3
TAP	54	32	4
TAP	54	64	3
TAP	54	96	4
HLD	54	192	5	192
TTP	54	288	6	B	0	M1
HLD	55	0	7	192
TTP	55	96	0	B	0	M1
HLD	55	192	1	192
TTP	55	288	2	B	0	M1
HLD	56	0	3	192
TTP	56	96	4	B	0	M1
TTP	56	192	0	C	1	M1
BRK	57	192	1
STR	58	192	4
SCL	58	192	4	96	480	6
HLD	58	192	6	192
TAP	59	192	5
TAP	60	0	4
HLD	60	192	1	192
STR	60	192	3
SCR	60	192	3	96	480	1
TAP	61	192	2
TAP	62	0	3
STR	62	192	4
SCL	62	192	4	96	480	6
HLD	62	192	6	192
TAP	63	192	5
TAP	64	0	4
HLD	64	192	1	192
STR	64	192	3
SCR	64	192	3	96	480	1
TAP	65	192	2
TAP	66	0	3
HLD	66	192	4	96
HLD	66	192	5	96
HLD	66	336	3	96
HLD	66	336	4	96
TAP	67	96	2
TAP	67	96	3
TTP	67	192	1	E	0	M1
TTP	67	240	4	E	0	M1
TTP	67	288	2	E	0	M1
TTP	67	336	5	E	0	M1
TTP	68	0	3	E	0	M1
TTP	68	48	6	E	0	M1
TTP	68	96	0	C	0	M1
HLD	68	192	4	96
HLD	68	192	5	96
HLD	68	336	3	96
HLD	68	336	4	96
TAP	69	96	2
TAP	69	96	3
TTP	69	192	1	E	0	M1
TTP	69	240	4	E	0	M1
TTP	69	288	2	E	0	M1
TTP	69	336	5	E	0	M1
TTP	70	0	3	E	0	M1
TTP	70	48	6	E	0	M1
TTP	70	96	0	C	0	M1
TAP	70	192	0
TAP	70	192	7
TAP	70	288	2
TAP	70	288	5
TAP	70	336	2
TAP	70	336	5
TAP	71	48	6
TAP	71	96	4
STR	71	144	5
SCR	71	144	5	96	96	0
STR	71	240	0
SUR	71	240	0	96	96	5
TAP	71	336	3
TAP	72	48	2
TAP	72	96	2
TAP	72	96	7
TAP	72	192	3
TAP	72	192	4
TAP	72	288	1
TAP	72	288	6
TAP	72	336	1
TAP	72	336	6
TAP	73	48	2
TAP	73	96	3
STR	73	144	1
SUL	73	144	1	96	96	4
STR	73	240	4
SCL	73	240	4	96	96	1
TAP	73	336	7
TAP	74	48	5
TAP	74	96	0
TAP	74	96	5
TAP	74	192	7
TAP	74	224	1
TAP	74	256	6
TAP	74	288	2
TAP	74	320	5
TAP	74	352	3
TTP	75	0	5	E	0	M1
TTP	75	32	4	E	0	M1
TTP	75	64	7	E	0	M1
TTP	75	96	2	E	0	M1
TAP	75	192	0
TAP	75	224	6
TAP	75	256	1
TAP	75	288	5
TAP	75	320	2
TAP	75	352	4
TTP	76	0	3	E	0	M1
TTP	76	32	4	E	0	M1
TTP	76	64	1	E	0	M1
TTP	76	96	6	E	0	M1
THO	76	192	0	192	C	1	M1
TTP	76	192	1	B	0	M1
TTP	76	192	6	B	0	M1
TAP	77	192	0
TAP	77	192	6
STR	77	240	7
SCR	77	240	7	96	48	3
TAP	77	288	1
TAP	77	336	7
TAP	78	48	6
TAP	78	64	7
TAP	78	80	0
TAP	78	96	1
TAP	78	112	2
TAP	78	128	3
TAP	78	144	4
TAP	78	192	7
STR	78	240	0
SCL	78	240	0	96	48	4
TAP	78	288	6
TAP	78	336	0
TAP	79	48	1
TAP	79	64	0
TAP	79	80	7
TAP	79	96	6
TAP	79	112	5
TAP	79	128	4
TAP	79	144	3
STR	79	192	0
SI_	79	192	0	96	48	3
SI_	79	192	0	96	48	5
TAP	79	288	0
STR	80	0	4
SI_	80	0	4	96	48	1
SI_	80	0	4	96	48	7
TAP	80	96	4
TAP	80	192	0
TAP	80	192	6
TAP	80	288	3
TAP	80	288	4
TAP	80	336	2
TAP	80	336	5
TTP	81	0	0	C	1	M1
TTP	81	0	2	B	0	M1
TTP	81	0	6	B	0	M1
BRK	81	96	0
TAP	81	192	1
TAP	81	192	7
STR	81	240	0
SCL	81	240	0	96	48	4
TAP	81	288	6
TAP	81	336	0
TAP	82	48	1
TAP	82	64	0
TAP	82	80	7
TAP	82	96	6
TAP	82	112	5
TAP	82	128	4
TAP	82	144	3
TAP	82	192	0
STR	82	240	7
SCR	82	240	7	96	48	3
TAP	82	288	1
TAP	82	336	7
TAP	83	48	6
TAP	83	64	7
TAP	83	80	0
TAP	83	96	1
TAP	83	112	2
TAP	83	128	3
TAP	83	144	4
TAP	83	192	7
TAP	83	240	2
TAP	83	264	3
TAP	83	288	1
TAP	83	336	5
TAP	83	360	4
TAP	84	0	6
TAP	84	48	0
TAP	84	72	7
TAP	84	96	0
TAP	84	120	7
TAP	84	144	0
TAP	84	168	7
TAP	84	192	0
TAP	84	216	1
TAP	84	240	2
TAP	84	264	3
TAP	84	288	6
TAP	84	312	5
TAP	84	336	4
TAP	84	360	3
TAP	85	0	1
TAP	85	24	2
TAP	85	48	3
TAP	85	72	4
TAP	85	96	5
TAP	85	120	6
TAP	85	144	7
TAP	85	168	0
TAP	85	192	1
STR	85	192	6
SI_	85	192	6	96	48	3
TAP	85	288	7
STR	86	0	1
SI_	86	0	1	96	48	4
TAP	86	0	5
TAP	86	96	0
TAP	86	192	2
STR	86	192	5
SI_	86	192	5	96	48	0
TAP	86	288	4
STR	87	0	2
SI_	87	0	2	96	48	7
TAP	87	0	6
STR	87	96	3
SCR	87	96	3	96	192	2
TTP	87	192	0	C	1	M1
TAP	88	96	1
TAP	88	144	1
HLD	88	192	7	160
HLD	88	288	3	64
TAP	89	0	2
TAP	89	0	6
TAP	89	32	1
TAP	89	32	5
TAP	89	64	0
TAP	89	64	4
TAP	89	96	3
TAP	89	96	7
TAP	89	192	4
STR	89	192	5
SI_	89	192	5	96	48	2
TAP	89	288	0
STR	90	0	1
SI_	90	0	1	96	48	6
TAP	90	0	7
TAP	90	96	4
STR	90	192	5
SCL	90	192	5	96	48	2
TAP	90	192	7
TAP	90	288	0
STR	91	0	1
SCL	91	0	1	96	48	6
TAP	91	0	6
STR	91	96	3
SCL	91	96	3	96	192	4
TTP	91	192	0	C	1	M1
TAP	92	0	2
TAP	92	48	1
TAP	92	96	0
HLD	92	144	7	240
TAP	92	240	0
HLD	92	288	0	96
TAP	93	16	1
TAP	93	16	6
TAP	93	32	2
TAP	93	32	5
TAP	93	48	3
TAP	93	48	4
BRK	93	96	1
BRK	93	96	6
STR	93	192	4
SI_	93	192	4	96	48	6
TAP	93	240	4
TAP	93	288	2
TAP	94	0	1
TAP	94	48	1
TAP	94	96	2
TAP	94	96	4
TAP	94	192	5
TAP	94	216	4
TAP	94	240	5
TAP	94	264	4
TAP	94	288	5
TAP	94	336	2
TAP	94	360	3
TAP	95	0	2
TAP	95	24	3
TAP	95	48	2
TAP	95	96	1
TAP	95	96	4
STR	95	192	3
SI_	95	192	3	96	48	1
TAP	95	240	3
TAP	95	288	5
TAP	96	0	6
TAP	96	48	6
TAP	96	96	3
TAP	96	96	5
TAP	96	192	2
TAP	96	216	3
TAP	96	240	2
TAP	96	288	5
TAP	96	312	4
TAP	96	336	5
HLD	97	0	2	96
TAP	97	96	7
TAP	97	192	3
STR	97	192	6
SCR	97	192	6	96	192	2
TTP	98	0	5	B	0	M1
STR	98	192	1
SCR	98	192	1	96	192	5
TAP	98	192	6
TTP	99	0	1	B	0	M1
TAP	99	192	3
STR	99	192	6
SUL	99	192	6	96	192	1
TTP	100	0	0	C	0	M1
HLD	100	192	0	96
HLD	100	192	7	96
TAP	101	0	0
TAP	101	0	7
TAP	101	48	6
TAP	101	72	1
TAP	101	96	5
TAP	101	120	2
TAP	101	144	4
TAP	101	168	3
HLD	101	192	4	144
TAP	101	288	5
HLD	101	336	5	96
TTP	102	96	6	B	0	M1
TTP	102	96	6	E	0	M1
TTP	102	144	2	B	0	M1
TTP	102	144	2	E	0	M1
TTP	102	192	4	B	0	M1
TTP	102	192	5	E	0	M1
TTP	102	240	1	B	0	M1
TTP	102	240	1	E	0	M1
TTP	102	288	7	B	0	M1
TTP	102	288	7	E	0	M1
TTP	102	336	3	B	0	M1
TTP	102	336	3	E	0	M1
TAP	103	48	5
TAP	103	96	5
STR	103	192	2
SI_	103	192	2	96	48	7
TAP	103	240	2
TAP	103	288	4
STR	103	336	5
SI_	103	336	5	96	48	0
TAP	104	0	5
TAP	104	48	3
STR	104	96	2
SI_	104	96	2	96	48	7
TAP	104	144	2
TAP	104	192	4
STR	104	240	5
SCR	104	240	5	96	144	2
SUR	104	240	5	96	144	2
TAP	104	288	5
TAP	105	192	2
TAP	105	192	3
TAP	105	288	1
TAP	105	288	4
TAP	106	0	3
TAP	106	0	5
TAP	106	48	3
TAP	106	48	5
TAP	106	144	1
TAP	106	144	4
TAP	106	240	2
TAP	106	240	3
TAP	106	312	4
TAP	106	336	4
TAP	107	48	1
TAP	107	48	6
TAP	107	96	0
TAP	107	120	7
TAP	107	144	0
TAP	107	168	7
TAP	107	192	0
TAP	107	288	4
TAP	107	288	5
TAP	107	360	3
TAP	108	0	3
TAP	108	48	2
TAP	108	48	4
TAP	108	96	1
STR	108	144	0
SSL	108	144	0	96	192	4
BRK	108	240	7
BRK	109	192	4
BRK	109	192	5
BRK	109	288	0
BRK	109	288	7
BRK	110	0	2
BRK	110	0	3
BRK	110	96	0
BRK	110	96	7
BRK	110	192	3
BRK	110	192	4
BRK	110	288	5
BRK	110	288	6
BRK	111	0	0
BRK	111	0	7
BRK	111	96	1
BRK	111	96	2
BRK	111	192	3
BRK	111	224	3
BRK	111	256	4
BRK	111	288	4
BRK	112	0	1
BRK	112	0	6
BRK	112	48	2
BRK	112	48	5
BRK	112	96	3
BRK	112	96	4
BRK	112	192	7
BRK	112	216	0
BRK	112	240	7
BRK	112	264	0
BRK	112	288	7
BRK	112	360	1
BRK	112	360	6
BRK	113	0	1
BRK	113	0	6
BRK	113	48	2
BRK	113	48	5
BRK	113	96	3
BRK	113	96	4
BRK	113	192	1
BRK	113	192	6
BRK	113	288	0
BRK	113	288	1
BRK	113	320	0
BRK	113	320	1
BRK	113	352	0
BRK	113	352	1
BRK	114	0	0
BRK	114	0	1
BRK	114	96	6
BRK	114	96	7
BRK	114	128	6
BRK	114	128	7
BRK	114	160	6
BRK	114	160	7
BRK	114	192	6
BRK	114	192	7
BRK	114	288	1
BRK	114	288	3
BRK	114	320	1
BRK	114	320	3
BRK	114	352	1
BRK	114	352	3
BRK	115	0	1
BRK	115	0	3
BRK	115	96	4
BRK	115	96	6
BRK	115	128	4
BRK	115	128	6
BRK	115	160	4
BRK	115	160	6
BRK	115	192	4
BRK	115	192	6
BRK	115	256	3
BRK	115	256	5
BRK	115	320	2
BRK	115	320	4
BRK	116	0	5
BRK	116	0	6
BRK	116	64	1
BRK	116	64	2
BRK	116	128	0
BRK	116	128	7
TTP	116	192	4	E	0	M1
TAP	117	192	2
TAP	117	192	4
TAP	117	240	5
TAP	117	264	4
TAP	117	288	5
TAP	117	312	4
TAP	117	336	5
TAP	118	0	6
TAP	118	0	7
TAP	118	24	0
TAP	118	48	1
TAP	118	72	2
TAP	118	96	3
TAP	118	96	4
TAP	118	120	5
TAP	118	144	6
TAP	118	168	7
TAP	118	192	0
TAP	118	192	1
TAP	118	240	2
TAP	118	264	3
TAP	118	288	2
TAP	118	312	3
TAP	118	336	2
TAP	119	0	0
TAP	119	0	1
TAP	119	24	7
TAP	119	48	6
TAP	119	72	5
TAP	119	96	3
TAP	119	96	4
TAP	119	120	2
TAP	119	144	1
TAP	119	168	0
TAP	119	192	6
TAP	119	192	7
TAP	119	240	5
TAP	119	264	4
TAP	119	288	5
TAP	119	312	4
TAP	119	336	5
TAP	120	0	2
TAP	120	24	3
TAP	120	48	2
TAP	120	72	3
TAP	120	96	2
TAP	120	144	0
TAP	120	144	1
TAP	120	192	6
TAP	120	204	5
TAP	120	216	4
TAP	120	228	3
TAP	120	240	2
TAP	120	252	1
TAP	120	264	0
TAP	120	276	7
TAP	120	288	6
TAP	120	300	5
TAP	120	312	4
TAP	120	324	3
TAP	120	336	2
TAP	120	348	1
TAP	120	360	0
TAP	120	372	7
BRK	121	0	6
TAP	121	192	0
STR	121	192	1
SI_	121	192	1	96	48	4
TAP	121	288	1
STR	121	336	7
SI_	121	336	7	96	48	3
TAP	122	48	0
TAP	122	48	7
TAP	122	144	1
STR	122	192	1
SLL	122	192	1	96	96	5
STR	122	288	5
SLL	122	288	5	96	96	1
TAP	123	0	1
TAP	123	96	5
TAP	123	192	6
STR	123	192	7
SI_	123	192	7	96	48	3
TAP	123	288	4
STR	123	336	4
SI_	123	336	4	96	48	0
HLD	124	48	2	96
STR	124	144	1
SCR	124	144	1	96	96	6
TAP	124	192	1
TAP	125	0	0
TAP	125	0	7
TAP	125	192	1
TAP	125	192	3
TAP	125	288	0
TAP	125	288	7
TAP	126	0	4
TAP	126	0	6
TAP	126	96	3
TAP	126	96	4
TAP	126	192	1
TAP	126	192	2
TAP	126	288	0
TAP	126	288	7
TAP	127	0	5
TAP	127	0	6
TAP	127	96	3
TAP	127	96	4
TAP	127	192	2
TAP	127	216	3
TAP	127	240	2
TAP	127	264	3
TAP	127	288	1
TAP	127	312	4
TAP	127	336	1
TAP	127	360	4
TAP	128	0	3
TAP	128	24	6
TAP	128	48	3
TAP	128	72	6
TAP	128	96	4
TAP	128	120	5
TAP	128	144	4
TAP	128	168	5
TAP	128	192	3
TAP	128	216	4
TAP	128	240	3
TAP	128	264	4
TAP	128	288	2
TAP	128	312	3
TAP	128	336	2
TAP	128	360	3
TAP	129	0	0
TAP	129	24	7
TAP	129	48	0
TAP	129	72	7
TAP	129	96	1
TAP	129	120	6
TAP	129	144	1
TAP	129	168	6
BRK	129	192	1
TAP	129	208	2
TAP	129	224	3
TAP	129	240	4
TAP	129	256	5
TAP	129	272	6
TAP	129	288	7
TAP	129	304	0
TAP	129	320	1
TAP	129	336	2
TAP	129	352	3
TAP	129	368	4
BRK	130	0	0
TAP	130	16	7
TAP	130	32	6
TAP	130	48	5
TAP	130	64	4
TAP	130	80	3
TAP	130	96	2
TAP	130	112	1
TAP	130	128	0
TAP	130	144	7
TAP	130	160	6
TAP	130	176	5
BRK	130	192	2
TAP	130	204	3
TAP	130	216	4
TAP	130	228	5
TAP	130	240	6
TAP	130	252	7
TAP	130	264	0
TAP	130	276	1
STR	130	288	2
SI_	130	288	2	96	48	6
TAP	130	300	3
TAP	130	312	4
TAP	130	324	5
TAP	130	336	6
TAP	130	348	7
TAP	130	360	0
TAP	130	372	1
TTP	131	0	0	C	1	M1
BRK	131	0	2
BRK	132	0	6
TTP	132	0	6	E	0	M1
TTP	132	0	7	E	0	M1

T_REC_TAP	711
T_REC_BRK	100
T_REC_XTP	0
T_REC_HLD	43
T_REC_XHO	0
T_REC_STR	68
T_REC_BST	0
T_REC_XST	0
T_REC_TTP	117
T_REC_THO	1
T_REC_SLD	71
T_REC_ALL	1111
T_NUM_TAP	896
T_NUM_BRK	100
T_NUM_HLD	44
T_NUM_SLD	71
T_NUM_ALL	1111
T_JUDGE_TAP	996
T_JUDGE_HLD	137
T_JUDGE_SLD	71
T_JUDGE_ALL	1204
TTM_EACHPAIRS	152
TTM_SCR_TAP	448000
TTM_SCR_BRK	260000
TTM_SCR_HLD	44000
TTM_SCR_SLD	106500
TTM_SCR_ALL	858500
TTM_SCR_S	823050
TTM_SCR_SS	848500
TTM_RAT_ACV	10117

