VERSION	0.00.00	1.03.00
FES_MODE	0
BPM_DEF	222.000	222.000	222.000	222.000
MET_DEF	4	4
RESOLUTION	384
CLK_DEF	384
COMPATIBLE_CODE	MA2

BPM	0	0	222.000
MET	0	0	4	4
MET	14	0	4	2
MET	14	192	4	4

HLD	2	0	3	576
HLD	3	0	4	576
HLD	4	0	2	480
HLD	5	0	5	192
BRK	5	192	0
HLD	6	0	7	96
TAP	6	96	0
TAP	6	144	0
TAP	6	240	5
TAP	6	288	5
TAP	6	336	4
HLD	7	0	6	96
TAP	7	96	0
TAP	7	144	0
TAP	7	240	2
TAP	7	288	2
TAP	7	336	3
HLD	8	0	1	96
TAP	8	96	7
TAP	8	144	7
TAP	8	240	5
TAP	8	288	5
TAP	8	336	3
STR	9	0	4
SI_	9	0	4	96	96	1
SI_	9	0	4	96	96	7
HLD	10	0	0	96
TAP	10	96	6
TAP	10	144	6
TAP	10	192	3
TAP	10	240	4
TAP	10	288	2
TAP	10	336	2
HLD	11	0	7	96
TAP	11	96	1
TAP	11	144	1
TAP	11	192	4
TAP	11	240	3
TAP	11	288	5
TAP	11	336	5
STR	12	0	0
SCR	12	0	0	96	96	3
TAP	12	192	4
TAP	12	240	4
HLD	12	336	6	96
TAP	13	48	4
TAP	13	96	4
TAP	13	144	7
TAP	13	192	0
STR	13	288	0
SCR	13	288	0	96	96	3
STR	13	288	7
SCL	13	288	7	96	96	4
TAP	14	192	3
TAP	14	192	4
TTP	14	288	0	B	0	M1
TTP	14	288	7	B	0	M1
TAP	15	0	2
TAP	15	0	4
TTP	15	96	6	B	0	M1
TTP	15	96	7	E	0	M1
TAP	15	192	3
TAP	15	192	5
TTP	15	288	1	B	0	M1
TTP	15	288	1	E	0	M1
TAP	16	0	3
TAP	16	0	4
TTP	16	96	3	E	0	M1
TTP	16	96	5	E	0	M1
TAP	16	192	3
TAP	16	192	4
TAP	16	288	2
TAP	16	288	5
TAP	17	0	1
TAP	17	0	6
STR	17	96	0
SSL	17	96	0	96	192	4
TAP	17	96	7
HLD	18	192	5	384
TAP	19	0	4
HLD	19	192	2	384
TAP	19	288	4
TAP	20	0	4
TAP	20	96	4
HLD	20	192	5	384
TAP	21	0	4
HLD	21	192	2	192
TAP	22	0	3
TAP	22	192	6
TAP	22	240	6
TAP	22	288	4
TAP	22	336	4
TAP	23	0	5
HLD	23	48	3	96
TAP	23	144	4
TAP	23	192	4
TAP	23	240	2
TAP	23	288	3
HLD	23	336	1	96
HLD	24	48	2	96
TAP	24	144	3
TAP	24	192	3
TAP	24	240	4
TAP	24	288	2
TAP	24	336	2
TAP	25	0	3
HLD	25	48	0	96
TAP	25	144	7
TAP	25	192	7
TAP	25	240	0
TAP	25	288	0
STR	25	336	6
SI_	25	336	6	96	96	3
HLD	26	192	2	384
TAP	27	0	3
HLD	27	192	5	384
TAP	27	288	3
TAP	28	0	3
TAP	28	96	3
HLD	28	192	2	384
TAP	29	0	3
TAP	29	96	4
HLD	29	192	5	192
TAP	30	0	4
HLD	30	192	6	64
TAP	30	256	4
TAP	30	288	4
HLD	31	0	1	64
TAP	31	64	3
TAP	31	96	3
HLD	31	192	5	64
TAP	31	256	7
TAP	31	288	7
HLD	32	0	2	64
TAP	32	64	0
TAP	32	96	0
STR	32	192	7
SI_	32	192	7	96	96	4
STR	33	0	0
SI_	33	0	0	96	96	3
BRK	33	192	7
HLD	34	192	3	96
HLD	34	192	5	96
HLD	34	336	2	96
HLD	34	336	4	96
TAP	35	96	3
TAP	35	96	5
TAP	35	192	2
TAP	35	192	6
TAP	35	288	7
TAP	35	336	7
TAP	36	0	0
TAP	36	48	0
TAP	36	96	1
TAP	36	96	5
HLD	36	192	2	96
HLD	36	192	4	96
HLD	36	336	3	96
HLD	36	336	5	96
TAP	37	96	2
TAP	37	96	4
TAP	37	192	1
TAP	37	192	5
TAP	37	288	0
TAP	37	336	0
TAP	38	0	7
TAP	38	48	7
TAP	38	96	2
TAP	38	96	6
HLD	38	192	3	96
HLD	38	192	5	96
HLD	38	336	2	96
HLD	38	336	4	96
TAP	39	96	3
TAP	39	96	5
HLD	39	144	3	96
HLD	39	144	5	96
XTP	39	336	0
XTP	39	336	7
XTP	40	48	1
XTP	40	48	6
XTP	40	96	1
XTP	40	96	6
HLD	40	192	2	96
HLD	40	192	4	96
HLD	40	336	3	96
HLD	40	336	5	96
TAP	41	96	2
STR	41	96	4
SUL	41	96	4	96	192	3
TAP	42	192	2
TAP	42	216	3
TAP	42	240	2
TAP	42	264	3
TAP	42	288	2
TAP	42	312	3
TAP	42	336	2
TAP	42	360	3
TAP	43	0	2
TAP	43	24	3
TAP	43	48	2
TAP	43	72	3
TAP	43	96	2
TAP	43	192	5
TAP	43	216	4
TAP	43	240	5
TAP	43	264	4
TAP	43	288	5
TAP	43	312	4
TAP	43	336	5
TAP	43	360	4
TAP	44	0	5
TAP	44	24	4
TAP	44	48	5
TAP	44	72	4
TAP	44	96	5
TAP	44	192	6
TAP	44	216	7
TAP	44	240	6
TAP	44	264	7
TAP	44	288	6
TAP	44	312	7
TAP	44	336	6
TAP	44	360	7
TAP	45	0	6
TAP	45	24	7
TAP	45	48	6
TAP	45	72	7
TAP	45	96	6
TAP	45	192	1
TAP	45	216	0
TAP	45	240	1
TAP	45	264	0
TAP	45	288	1
TAP	45	312	0
TAP	45	336	1
TAP	45	360	0
TAP	46	0	1
TAP	46	24	0
TAP	46	48	1
TAP	46	72	0
TAP	46	96	1
STR	46	192	2
SI_	46	192	2	96	96	5
STR	47	0	6
SI_	47	0	6	96	96	1
STR	47	192	2
SI_	47	192	2	96	96	5
STR	48	0	6
SI_	48	0	6	96	96	1
HLD	48	192	2	96
TAP	48	288	4
HLD	49	0	5	96
TAP	49	96	3
TAP	49	192	1
TAP	49	192	4
TAP	49	288	3
TAP	49	288	6
TAP	50	0	1
TAP	50	0	4
TAP	50	96	3
TAP	50	96	6
HLD	50	192	1	192
TAP	50	192	5
HLD	51	0	3	192
HLD	51	192	4	192
HLD	52	0	6	192
HLD	52	192	1	192
TAP	53	0	4
TAP	53	96	5
STR	53	192	3
SXR	53	192	3	96	192	4
HLD	54	192	5	192
HLD	55	0	7	192
HLD	55	192	0	192
HLD	56	0	2	192
HLD	56	192	4	384
BRK	57	192	1
STR	58	192	7
SCL	58	192	7	96	480	1
TAP	59	0	0
TAP	59	192	0
TAP	60	0	0
STR	60	192	0
SCR	60	192	0	96	480	6
TAP	61	0	7
TAP	61	192	7
TAP	62	0	7
STR	62	192	7
SCL	62	192	7	96	480	1
TAP	63	0	0
TAP	63	192	0
TAP	64	0	0
STR	64	192	0
SCR	64	192	0	96	480	6
TAP	65	0	7
TAP	65	192	7
TAP	66	0	7
TTP	66	192	6	E	0	M1
TTP	66	288	5	E	0	M1
TTP	67	0	4	E	0	M1
TTP	67	96	3	E	0	M1
TAP	67	192	1
TAP	67	240	1
TAP	67	288	4
TAP	67	336	4
TAP	68	0	2
TAP	68	48	2
TAP	68	96	3
TTP	68	192	2	E	0	M1
TTP	68	288	3	E	0	M1
TTP	69	0	4	E	0	M1
TTP	69	96	5	E	0	M1
TAP	69	192	6
TAP	69	240	6
TAP	69	288	3
TAP	69	336	3
TAP	70	0	5
TAP	70	48	5
TAP	70	96	4
XHO	70	192	4	96
XHO	70	192	5	96
XHO	70	336	3	96
XHO	70	336	6	96
XTP	71	96	2
XTP	71	96	7
XTP	71	144	2
XHO	71	144	7	96
TAP	71	240	4
TAP	71	336	3
TAP	72	0	3
TAP	72	48	4
TAP	72	96	2
XHO	72	192	2	96
XHO	72	192	3	96
XHO	72	336	1	96
XHO	72	336	4	96
XTP	73	96	0
XTP	73	96	5
XHO	73	144	0	96
XTP	73	144	5
TAP	73	240	3
TAP	73	336	4
TAP	74	0	4
TAP	74	48	3
TAP	74	96	5
STR	74	192	6
SLL	74	192	6	96	192	2
STR	75	192	1
SLR	75	192	1	96	192	5
TTP	76	192	0	C	1	M1
TAP	77	192	6
TAP	77	192	7
TAP	77	288	2
TAP	77	288	4
STR	77	336	3
SCL	77	336	3	96	96	0
TAP	77	336	5
XTP	78	48	4
XTP	78	96	4
TAP	78	192	7
TAP	78	288	2
TAP	78	288	4
STR	78	336	3
SCL	78	336	3	96	96	0
TAP	78	336	5
XTP	79	48	4
XTP	79	96	4
STR	79	192	7
SI_	79	192	7	96	96	3
STR	80	0	0
SI_	80	0	0	96	96	4
TAP	80	192	6
TAP	80	288	0
TAP	80	288	7
TAP	80	336	0
TAP	80	336	7
XTP	81	0	1
XTP	81	0	6
TAP	81	192	0
TAP	81	192	1
TAP	81	288	3
TAP	81	288	5
TAP	81	336	2
STR	81	336	4
SCR	81	336	4	96	96	7
XTP	82	48	3
XTP	82	96	3
TAP	82	192	0
TAP	82	288	3
TAP	82	288	5
TAP	82	336	2
STR	82	336	4
SCR	82	336	4	96	96	7
XTP	83	48	3
XTP	83	96	3
STR	83	192	0
SI_	83	192	0	96	96	4
STR	84	0	7
SI_	84	0	7	96	96	3
TAP	84	192	0
TAP	84	240	0
TAP	84	288	7
TAP	85	0	3
TAP	85	0	4
BRK	85	96	1
BRK	85	96	6
HLD	85	192	7	192
TAP	85	288	5
HLD	86	0	0	192
TAP	86	96	2
HLD	86	192	5	192
TAP	86	288	7
HLD	87	0	2	96
STR	87	96	0
SCL	87	96	0	96	144	4
TAP	88	96	2
TAP	88	144	2
TAP	88	192	3
TAP	88	288	1
TAP	88	288	4
TAP	89	0	5
TAP	89	32	4
TAP	89	64	5
TAP	89	96	4
HLD	89	192	2	192
TAP	89	288	0
HLD	90	0	5	192
TAP	90	96	7
HLD	90	192	0	192
TAP	90	288	2
HLD	91	0	7	96
STR	91	96	3
SI_	91	96	3	96	96	0
TAP	92	48	5
TAP	92	96	5
TAP	92	144	4
TAP	92	192	6
TAP	92	240	0
STR	92	288	7
SI_	92	288	7	96	96	3
TAP	93	192	2
TAP	93	288	1
TAP	93	288	4
TAP	94	0	0
TAP	94	48	0
TAP	94	96	7
BRK	94	192	4
BRK	94	192	6
BRK	94	288	3
BRK	94	288	4
BRK	95	0	1
BRK	95	0	3
BRK	95	96	0
BRK	95	96	7
TAP	95	192	5
TAP	95	288	3
TAP	95	288	6
TAP	95	336	3
TAP	95	336	6
TAP	96	48	1
TAP	96	48	4
TAP	96	96	1
TAP	96	96	4
TAP	96	192	0
TAP	96	216	7
TAP	96	240	0
TAP	96	264	7
TAP	96	288	0
TAP	96	312	7
TAP	96	336	0
TAP	97	48	1
TAP	97	48	6
TAP	97	96	1
TAP	97	96	6
HLD	97	192	5	384
TTP	98	0	4	E	0	M1
HLD	98	192	2	384
TTP	99	0	3	B	0	M1
TTP	99	0	4	B	0	M1
HLD	99	192	5	384
TTP	100	0	3	B	0	M1
TTP	100	0	4	B	0	M1
TTP	100	0	4	E	0	M1
HLD	100	192	2	192
TTP	101	0	0	E	0	M1
HLD	101	192	3	96
HLD	101	192	6	96
HLD	101	336	2	96
HLD	101	336	7	96
TAP	102	96	3
TAP	102	144	3
TAP	102	192	4
TAP	102	240	2
TAP	102	288	3
TAP	102	336	1
XTP	103	0	7
XTP	103	48	7
XTP	103	96	0
XTP	103	96	7
HLD	103	192	1	96
HLD	103	192	4	96
HLD	103	336	0	96
HLD	103	336	5	96
HLD	104	96	6	96
HLD	104	96	7	96
TAP	104	240	5
TAP	104	288	5
TAP	104	336	4
TAP	105	0	6
TAP	105	48	3
TAP	105	96	4
TAP	105	144	2
HLD	105	192	2	96
TAP	105	288	5
STR	105	336	5
SXL	105	336	5	96	336	2
TAP	107	0	1
TAP	107	96	1
HLD	107	192	5	96
TAP	107	288	3
HLD	107	336	3	96
TAP	108	48	7
HLD	108	96	7	96
TAP	108	192	0
XTP	108	288	3
XTP	108	288	4
XTP	109	0	2
XTP	109	0	5
XTP	109	96	1
XTP	109	96	6
XTP	109	192	0
XTP	109	192	7
TAP	109	288	5
TAP	109	288	6
TAP	110	0	3
TAP	110	0	4
TAP	110	96	1
TAP	110	96	2
TAP	110	192	0
TAP	110	192	7
TAP	110	288	5
TAP	110	288	6
TAP	111	0	3
TAP	111	0	4
TAP	111	96	1
TAP	111	96	2
XTP	111	192	0
XTP	111	192	7
XTP	111	224	0
XTP	111	224	7
XTP	111	256	0
XTP	111	256	7
XTP	111	288	0
XTP	111	288	7
TAP	112	0	3
TAP	112	0	4
TAP	112	96	1
TAP	112	96	6
TAP	112	192	0
TAP	112	192	7
TAP	112	288	1
TAP	112	288	2
TAP	113	0	3
TAP	113	0	4
TAP	113	96	5
TAP	113	96	6
TAP	113	192	0
TAP	113	192	7
TAP	113	288	2
TAP	113	320	3
TAP	113	352	2
TAP	114	0	3
TAP	114	96	5
TAP	114	128	4
TAP	114	160	5
TAP	114	192	4
TAP	114	288	3
TAP	114	320	4
TAP	114	352	3
TAP	115	0	4
TAP	115	32	3
TAP	115	64	4
TAP	115	96	3
TAP	115	128	4
TAP	115	160	3
TAP	115	192	4
TAP	115	256	1
TAP	115	256	3
TAP	115	320	0
TAP	115	320	7
TAP	116	0	4
TAP	116	0	6
TAP	116	64	3
TAP	116	64	4
TAP	116	128	1
TAP	116	128	3
TAP	116	192	0
TAP	116	192	7
TTP	117	0	3	E	0	M1
TTP	117	0	5	E	0	M1
TAP	117	192	2
TAP	117	240	2
TAP	117	288	1
TAP	117	288	3
TAP	117	336	1
STR	117	336	3
SI_	117	336	3	96	96	7
TAP	118	48	2
TAP	118	96	2
TAP	118	192	0
TAP	118	240	0
TAP	118	288	7
STR	118	336	1
SI_	118	336	1	96	96	4
TAP	119	48	6
TAP	119	96	6
TAP	119	192	5
TAP	119	240	5
TAP	119	288	4
TAP	119	288	6
STR	119	336	4
SI_	119	336	4	96	96	0
TAP	119	336	6
TAP	120	48	5
TAP	120	96	5
STR	120	192	6
SI_	120	192	6	96	96	2
TAP	121	192	2
TAP	121	240	2
TAP	121	288	3
TAP	121	336	1
TAP	122	48	0
TAP	122	48	4
TAP	122	96	0
TAP	122	96	4
TAP	122	192	5
TAP	122	240	5
TAP	122	288	4
TAP	122	336	6
TAP	123	48	3
TAP	123	48	7
TAP	123	96	3
TAP	123	96	7
TAP	123	192	2
TAP	123	240	2
TAP	123	288	5
TAP	123	336	5
TAP	124	0	0
TAP	124	48	0
TAP	124	96	7
TAP	124	144	7
TAP	124	192	3
TAP	124	240	3
TAP	124	288	4
TAP	125	0	2
TAP	125	0	5
TAP	125	96	1
TAP	125	96	6
STR	125	192	0
SI_	125	192	0	96	48	4
STR	125	288	7
SI_	125	288	7	96	48	5
STR	126	0	1
SI_	126	0	1	96	48	3
TAP	126	96	0
STR	126	192	7
SI_	126	192	7	96	48	3
STR	126	288	0
SI_	126	288	0	96	48	2
STR	127	0	6
SI_	127	0	6	96	48	4
TAP	127	96	7
TAP	127	192	1
TAP	127	240	1
TAP	127	288	6
TAP	127	336	6
TAP	128	0	0
TAP	128	24	7
TAP	128	48	0
TAP	128	72	7
TAP	128	96	0
TAP	128	120	7
TAP	128	144	0
TAP	128	168	7
TAP	128	192	1
TAP	128	216	6
TAP	128	240	1
TAP	128	264	6
TAP	128	288	1
TAP	128	312	6
TAP	128	336	1
TAP	128	360	6
TAP	129	0	2
TAP	129	24	5
TAP	129	48	2
TAP	129	72	5
TAP	129	96	2
TAP	129	120	5
TAP	129	144	2
TAP	129	168	5
TAP	129	192	3
TAP	129	216	4
TAP	129	240	3
TAP	129	264	4
TAP	129	288	3
TAP	129	312	4
TAP	129	336	3
TAP	129	360	4
XTP	130	0	3
XTP	130	24	2
XTP	130	48	1
XTP	130	72	0
XTP	130	96	7
XTP	130	120	6
XTP	130	144	5
XTP	130	168	4
XHO	130	192	3	192
TTP	131	0	0	C	1	M1
BRK	132	0	6

T_REC_TAP	451
T_REC_BRK	14
T_REC_XTP	50
T_REC_HLD	82
T_REC_XHO	11
T_REC_STR	42
T_REC_BST	0
T_REC_XST	0
T_REC_TTP	27
T_REC_THO	0
T_REC_SLD	43
T_REC_ALL	720
T_NUM_TAP	570
T_NUM_BRK	14
T_NUM_HLD	93
T_NUM_SLD	43
T_NUM_ALL	720
T_JUDGE_TAP	584
T_JUDGE_HLD	314
T_JUDGE_SLD	43
T_JUDGE_ALL	941
TTM_EACHPAIRS	113
TTM_SCR_TAP	285000
TTM_SCR_BRK	36400
TTM_SCR_HLD	93000
TTM_SCR_SLD	64500
TTM_SCR_ALL	478900
TTM_SCR_S	463200
TTM_SCR_SS	477500
TTM_RAT_ACV	10029

