VERSION	0.00.00	1.03.00
FES_MODE	0
BPM_DEF	222.000	222.000	222.000	222.000
MET_DEF	4	4
RESOLUTION	384
CLK_DEF	384
COMPATIBLE_CODE	MA2

BPM	0	0	222.000
MET	0	0	4	4
MET	14	0	4	2
MET	14	192	4	4

HLD	2	0	2	384
HLD	3	0	3	384
XHO	4	0	4	384
TAP	5	0	3
TAP	5	192	3
TAP	5	192	4
BST	6	0	4
SI_	6	0	4	96	192	7
STR	7	0	0
SI_	7	0	0	96	192	3
STR	8	0	4
SI_	8	0	4	96	192	7
TAP	9	0	0
XTP	9	192	1
XTP	9	192	7
STR	10	0	0
SCR	10	0	0	96	192	3
STR	11	0	4
SCR	11	0	4	96	192	7
HLD	12	0	0	192
HLD	12	192	7	192
TAP	13	0	0
TAP	13	192	0
TAP	13	192	7
XTP	14	0	1
XTP	14	0	6
TAP	14	192	0
TAP	14	288	0
TAP	15	0	1
TAP	15	96	1
TAP	15	192	2
TAP	15	288	2
TAP	16	0	3
TAP	16	0	4
TAP	16	96	3
TAP	16	96	4
TAP	16	192	5
TAP	16	288	5
TAP	17	0	6
TAP	17	96	6
TAP	17	192	0
TAP	17	192	7
XTP	18	0	1
XTP	18	0	6
HLD	18	192	2	192
TAP	19	0	3
TAP	19	192	4
TAP	20	0	5
HLD	20	192	5	192
TAP	21	0	4
TAP	21	192	4
TAP	21	192	5
TAP	22	0	3
TAP	22	0	6
TAP	22	192	5
TAP	22	288	4
TAP	23	0	3
TAP	23	96	2
TAP	23	192	0
TAP	23	192	1
TAP	24	0	2
TAP	24	0	7
TAP	24	192	2
TAP	24	288	3
TAP	25	0	4
TAP	25	96	5
TAP	25	192	6
TAP	25	192	7
XTP	26	0	0
XTP	26	0	5
HLD	26	192	5	192
TAP	27	0	4
TAP	27	192	3
TAP	28	0	3
TAP	28	0	4
HLD	28	192	2	192
TAP	29	0	3
TAP	29	192	1
TAP	30	0	0
TAP	30	0	7
TAP	30	192	6
TAP	30	192	7
TAP	30	288	6
TAP	30	288	7
TAP	31	0	0
TAP	31	0	5
TAP	31	192	0
TAP	31	192	1
TAP	31	288	0
TAP	31	288	1
TAP	32	0	2
TAP	32	0	7
XHO	32	192	0	96
XHO	32	192	1	96
XHO	33	0	0	96
XHO	33	0	7	96
XHO	33	192	6	96
XHO	33	192	7	96
BRK	34	0	0
BRK	34	0	5
STR	34	192	6
SXR	34	192	6	96	480	3
STR	36	192	2
SXR	36	192	2	96	480	7
STR	38	192	6
SXL	38	192	6	96	480	3
TAP	40	192	2
TAP	40	288	2
TAP	41	0	3
TAP	41	96	3
HLD	41	192	3	192
HLD	41	192	4	192
TAP	42	192	5
TAP	42	240	5
TAP	42	288	5
TAP	43	0	4
TAP	43	0	6
TAP	43	96	3
TAP	43	96	5
TAP	43	192	2
TAP	43	240	2
TAP	43	288	2
TAP	44	0	1
TAP	44	0	3
TAP	44	96	2
TAP	44	96	4
TAP	44	192	5
TAP	44	240	5
TAP	44	288	5
TAP	45	0	3
TAP	45	48	3
TAP	45	96	3
TAP	45	192	3
TAP	45	192	4
TAP	45	288	2
TAP	45	288	5
XTP	46	0	1
XTP	46	0	6
HLD	46	192	1	192
HLD	47	0	2	192
TAP	47	192	3
TAP	48	0	3
TAP	48	0	4
HLD	48	192	5	192
HLD	49	0	6	192
TAP	49	192	7
TAP	50	0	0
TAP	50	0	7
HLD	50	192	6	192
HLD	51	0	5	192
HLD	51	192	4	192
HLD	52	0	3	192
HLD	52	192	2	192
HLD	53	0	1	192
TAP	53	192	0
TAP	54	0	0
TAP	54	0	7
STR	54	192	1
SLR	54	192	1	96	480	7
STR	54	192	6
SLL	54	192	6	96	480	0
BRK	56	192	1
BRK	56	192	6
TTP	58	192	3	B	0	L1
TTP	59	192	1	B	0	L1
TTP	59	192	2	E	0	L1
TTP	60	192	4	B	0	L1
TTP	61	192	6	B	0	L1
TTP	61	192	6	E	0	L1
TTP	62	192	5	B	0	L1
TTP	63	0	4	B	0	L1
TTP	63	192	3	B	0	L1
TTP	64	192	2	B	0	L1
TTP	65	0	3	B	0	L1
TTP	65	192	4	B	0	L1
XST	66	192	6
SI_	66	192	6	96	288	3
XST	66	192	7
SI_	66	192	7	96	288	2
XST	68	192	0
SI_	68	192	0	96	288	5
XST	68	192	1
SI_	68	192	1	96	288	4
HLD	70	192	3	192
HLD	70	192	6	192
TAP	71	192	5
TAP	71	288	5
TAP	72	0	4
TAP	72	0	5
HLD	72	192	1	192
HLD	72	192	4	192
TAP	73	192	2
TAP	73	288	2
TAP	74	0	2
TAP	74	0	3
XHO	74	192	4	192
XHO	74	192	6	192
XHO	75	192	2	192
XHO	75	192	3	192
TTP	76	192	0	C	1	L1
BRK	77	192	0
BRK	77	192	7
TAP	77	288	0
TAP	77	288	7
TAP	78	0	1
TAP	78	0	6
TAP	78	96	1
TAP	78	96	6
TAP	78	192	2
TAP	78	288	3
TAP	79	0	4
TAP	79	0	5
TAP	79	96	4
TAP	79	96	5
TAP	79	192	6
TAP	79	288	6
TAP	79	288	7
TAP	80	0	1
TAP	80	96	0
TAP	80	96	1
TAP	80	192	7
TAP	80	288	0
TAP	80	288	7
XTP	81	0	1
XTP	81	0	6
TAP	81	192	5
TAP	81	288	4
TAP	81	288	5
TAP	82	0	3
TAP	82	0	6
TAP	82	96	4
TAP	82	96	5
TAP	82	192	2
TAP	82	288	2
TAP	82	288	3
TAP	83	0	1
TAP	83	0	4
TAP	83	96	2
TAP	83	96	3
TAP	83	192	4
TAP	83	240	4
TAP	83	288	4
TAP	84	0	3
TAP	84	48	3
TAP	84	96	3
TAP	84	192	3
TAP	84	192	4
TAP	84	288	2
TAP	84	288	5
BRK	85	0	1
BRK	85	0	6
HLD	85	192	1	96
TAP	85	288	0
HLD	86	0	6	96
TAP	86	96	7
HLD	86	192	1	96
TAP	86	288	3
HLD	87	0	6	96
TAP	87	96	4
TAP	87	192	3
TAP	87	192	5
TAP	87	288	3
TAP	87	288	5
TAP	88	0	2
TAP	88	0	4
TAP	88	96	2
TAP	88	96	4
TAP	88	192	3
TAP	88	192	5
TAP	88	288	2
TAP	88	288	6
XTP	89	0	1
XTP	89	0	7
HLD	89	192	1	96
TAP	89	288	3
HLD	90	0	6	96
TAP	90	96	4
HLD	90	192	1	96
TAP	90	288	0
HLD	91	0	6	96
TAP	91	96	7
TAP	91	192	0
TAP	91	288	1
TAP	92	0	2
TAP	92	0	3
TAP	92	96	2
TAP	92	96	3
TAP	92	192	4
TAP	92	192	5
TAP	92	288	3
TAP	92	288	6
XTP	93	0	2
XTP	93	0	7
HLD	93	192	0	192
HLD	93	192	1	192
TAP	94	192	2
TAP	94	288	3
TAP	95	0	4
TAP	95	0	5
HLD	95	192	6	192
HLD	95	192	7	192
TAP	96	192	5
TAP	96	288	4
TAP	97	0	2
TAP	97	0	3
HLD	97	192	1	192
TAP	97	288	0
TAP	98	0	0
HLD	98	192	6	192
TAP	98	288	7
TAP	99	0	7
HLD	99	192	0	192
TAP	99	288	7
TAP	100	0	7
TAP	100	192	1
TAP	100	192	6
TAP	100	288	1
TAP	100	288	6
TAP	101	0	1
TAP	101	0	6
XTP	101	192	3
XTP	101	192	4
TAP	101	288	5
TAP	101	336	5
TAP	102	0	4
TAP	102	96	3
TAP	102	96	6
TAP	102	192	5
TAP	102	240	5
TAP	102	288	4
TAP	103	0	3
TAP	103	0	6
XTP	103	192	3
XTP	103	192	4
TAP	103	288	2
TAP	103	336	2
TAP	104	0	3
TAP	104	96	1
TAP	104	96	4
TAP	104	192	2
TAP	104	240	2
TAP	104	288	3
TAP	105	0	1
TAP	105	0	4
TAP	105	192	0
TAP	105	192	7
TAP	105	288	6
TAP	105	336	6
TAP	106	0	7
TAP	106	96	0
TAP	106	96	5
TAP	106	192	6
TAP	106	240	6
TAP	106	288	7
XTP	107	0	0
XTP	107	0	5
HLD	107	192	1	192
HLD	107	192	6	192
XTP	108	192	3
XTP	108	192	4
TAP	109	192	1
TAP	109	192	3
TAP	109	288	1
TAP	109	288	3
TAP	110	0	2
TAP	110	0	4
TAP	110	96	2
TAP	110	96	4
TAP	110	192	3
TAP	110	192	5
TAP	110	288	3
TAP	110	288	5
TAP	111	0	4
TAP	111	0	6
TAP	111	96	4
TAP	111	96	6
XTP	111	192	3
XTP	111	192	7
XTP	111	288	3
XTP	111	288	7
TAP	112	0	2
TAP	112	0	6
TAP	112	96	2
TAP	112	96	6
TAP	112	192	1
TAP	112	192	5
TAP	112	288	1
TAP	112	288	5
BRK	113	0	0
BRK	113	0	4
HLD	113	192	6	96
HLD	113	192	7	96
HLD	114	0	0	96
HLD	114	0	1	96
HLD	114	192	2	96
HLD	114	192	3	96
HLD	115	0	4	96
HLD	115	0	5	96
BST	115	192	3
SUR	115	192	3	96	288	0
BST	115	192	4
SUL	115	192	4	96	288	7
XTP	117	192	0
XTP	117	192	7
TAP	117	288	1
TAP	117	336	1
TAP	118	48	2
TAP	118	48	3
TAP	118	96	2
TAP	118	96	3
TAP	118	192	3
TAP	118	192	4
TAP	118	288	5
TAP	118	336	5
TAP	119	48	6
TAP	119	48	7
TAP	119	96	6
TAP	119	96	7
XTP	119	192	0
XTP	119	192	1
TAP	119	288	2
TAP	119	288	7
TAP	119	336	2
TAP	119	336	7
TAP	120	48	1
TAP	120	48	6
TAP	120	96	1
TAP	120	96	6
XTP	120	192	0
XTP	120	192	5
XTP	120	288	1
XTP	120	288	4
BRK	121	0	2
BRK	121	0	3
TAP	121	192	5
TAP	121	288	4
TAP	121	288	6
TAP	122	0	2
TAP	122	96	1
TAP	122	96	3
TAP	122	192	6
TAP	122	288	5
TAP	122	288	7
TAP	123	0	1
TAP	123	96	0
TAP	123	96	2
TAP	123	192	7
TAP	123	288	0
TAP	123	288	6
TAP	124	0	1
TAP	124	0	5
TAP	124	96	2
TAP	124	96	4
TAP	124	192	3
TAP	124	192	5
TAP	124	288	3
TAP	124	288	5
BRK	125	0	1
BRK	125	0	7
TAP	125	192	4
TAP	125	192	5
TAP	125	288	6
TAP	126	0	2
TAP	126	0	3
TAP	126	96	1
TAP	126	192	4
TAP	126	192	6
TAP	126	288	7
TAP	127	0	1
TAP	127	0	3
TAP	127	96	0
TAP	127	192	6
TAP	127	192	7
TAP	127	240	6
TAP	127	240	7
TAP	127	288	6
TAP	127	288	7
TAP	128	0	4
TAP	128	0	5
TAP	128	48	4
TAP	128	48	5
TAP	128	96	4
TAP	128	96	5
TAP	128	192	2
TAP	128	192	3
TAP	128	240	2
TAP	128	240	3
TAP	128	288	2
TAP	128	288	3
TAP	129	0	0
TAP	129	0	1
TAP	129	48	0
TAP	129	48	1
TAP	129	96	0
TAP	129	96	1
TAP	129	192	2
TAP	129	192	7
TAP	129	240	2
TAP	129	240	7
TAP	129	288	2
TAP	129	288	7
TAP	130	0	0
TAP	130	0	5
TAP	130	48	0
TAP	130	48	5
TAP	130	96	0
TAP	130	96	5
XTP	130	192	1
XTP	130	192	6
TTP	131	0	0	C	1	L1
TTP	131	0	2	B	0	L1
TTP	131	0	3	B	0	L1
TTP	131	0	4	B	0	L1
TTP	131	0	5	B	0	L1
BRK	132	0	6

T_REC_TAP	352
T_REC_BRK	15
T_REC_XTP	38
T_REC_HLD	49
T_REC_XHO	11
T_REC_STR	9
T_REC_BST	3
T_REC_XST	4
T_REC_TTP	18
T_REC_THO	0
T_REC_SLD	16
T_REC_ALL	515
T_NUM_TAP	421
T_NUM_BRK	18
T_NUM_HLD	60
T_NUM_SLD	16
T_NUM_ALL	515
T_JUDGE_TAP	439
T_JUDGE_HLD	208
T_JUDGE_SLD	16
T_JUDGE_ALL	663
TTM_EACHPAIRS	163
TTM_SCR_TAP	210500
TTM_SCR_BRK	46800
TTM_SCR_HLD	60000
TTM_SCR_SLD	24000
TTM_SCR_ALL	341300
TTM_SCR_S	329350
TTM_SCR_SS	339500
TTM_RAT_ACV	10053

