VERSION	0.00.00	1.03.00
FES_MODE	0
BPM_DEF	222.000	222.000	222.000	222.000
MET_DEF	4	4
RESOLUTION	384
CLK_DEF	384
COMPATIBLE_CODE	MA2

BPM	0	0	222.000
MET	0	0	4	4
MET	14	0	4	2
MET	14	192	4	4

TAP	6	0	0
TAP	7	0	1
TAP	8	0	2
TAP	9	0	3
TAP	9	0	4
TAP	10	0	4
TAP	11	0	5
TAP	12	0	6
XTP	13	0	7
TAP	14	192	6
TAP	14	192	7
TAP	15	192	4
TAP	15	192	5
TAP	16	192	2
TAP	16	192	3
TAP	17	192	0
TAP	17	192	1
STR	18	192	0
SI_	18	192	0	96	288	4
STR	20	192	7
SI_	20	192	7	96	288	3
TAP	22	192	2
TAP	23	0	2
TAP	23	192	2
TAP	23	192	3
TAP	24	192	5
TAP	25	0	5
TAP	25	192	4
TAP	25	192	5
STR	26	192	6
SI_	26	192	6	96	288	2
STR	28	192	1
SI_	28	192	1	96	288	5
TAP	30	192	6
TAP	31	0	6
TAP	31	192	6
TAP	31	192	7
TAP	32	192	1
TAP	33	0	1
TAP	33	192	0
TAP	33	192	1
HLD	34	192	7	384
HLD	36	192	0	384
HLD	38	192	0	384
HLD	38	192	7	384
XTP	40	192	1
XTP	40	192	6
XTP	41	192	2
XTP	41	192	5
TAP	42	192	4
TAP	42	288	4
TAP	43	0	4
TAP	43	192	5
TAP	44	192	6
TAP	44	288	6
TAP	45	0	6
TAP	45	192	7
TAP	46	192	0
TAP	46	288	0
TAP	47	0	0
TAP	47	192	1
TAP	48	192	2
TAP	48	288	2
TAP	49	0	2
TAP	49	192	3
TTP	50	192	4	E	0	L1
TTP	51	192	3	E	0	L1
TTP	51	192	5	E	0	L1
TTP	52	192	2	E	0	L1
TTP	52	192	6	E	0	L1
TTP	53	192	0	C	0	L1
TTP	54	192	1	B	0	L1
TTP	54	192	6	B	0	L1
TTP	55	192	1	E	0	L1
TTP	55	192	7	E	0	L1
THO	56	192	0	384	C	0	L1
TAP	58	192	7
TAP	59	192	0
TAP	60	192	1
TAP	61	192	2
TAP	62	192	3
TAP	63	192	4
TAP	64	192	3
TAP	64	192	4
TAP	65	0	3
TAP	65	0	4
TAP	65	192	3
TAP	65	192	4
TAP	66	192	3
TAP	67	0	3
TAP	67	192	2
TAP	68	0	2
TAP	68	192	1
TAP	69	0	1
TAP	69	192	0
TAP	70	192	7
TAP	71	0	7
TAP	71	192	6
TAP	72	0	6
TAP	72	192	5
TAP	73	0	5
TAP	73	192	4
TTP	74	192	3	E	0	L1
TTP	74	192	5	E	0	L1
THO	75	192	0	384	C	1	L1
BRK	77	192	7
TAP	77	288	7
TAP	78	0	7
TAP	78	192	6
TAP	78	288	6
TAP	79	0	6
TAP	79	192	5
TAP	79	288	5
TAP	80	0	5
TAP	80	192	3
TAP	80	192	4
TAP	81	0	3
TAP	81	0	4
TAP	81	192	3
TAP	81	288	3
TAP	82	0	3
TAP	82	192	2
TAP	82	288	2
TAP	83	0	2
TAP	83	192	1
TAP	83	288	1
TAP	84	0	1
TAP	84	192	0
TAP	84	288	0
XTP	85	0	0
XTP	85	0	7
TAP	85	192	0
TAP	85	288	0
TAP	86	0	0
TAP	86	192	1
TAP	86	288	1
TAP	87	0	1
TAP	87	192	2
TAP	87	288	2
TAP	88	0	2
TAP	88	0	3
TAP	88	192	3
TAP	88	192	4
TAP	89	0	3
TAP	89	0	4
TAP	89	192	4
TAP	89	288	4
TAP	90	0	4
TAP	90	192	5
TAP	90	288	5
TAP	91	0	5
TAP	91	192	6
TAP	91	288	6
TAP	92	0	6
TAP	92	0	7
TAP	92	192	7
TAP	92	288	7
XTP	93	0	0
XTP	93	0	7
HLD	93	192	6	192
TAP	94	192	6
TAP	95	0	6
HLD	95	192	7	192
TAP	96	192	7
TAP	97	0	7
HLD	97	192	0	192
TAP	98	192	0
TAP	99	0	0
HLD	99	192	1	192
TAP	100	192	1
TAP	101	0	1
HLD	101	192	2	192
HLD	101	192	3	192
XTP	102	192	2
XTP	102	192	3
XTP	103	0	2
XTP	103	0	3
HLD	103	192	4	192
HLD	103	192	5	192
XTP	104	192	4
XTP	104	192	5
XTP	105	0	4
XTP	105	0	5
TAP	105	192	6
TAP	105	288	6
TAP	106	192	7
TAP	106	288	7
TAP	107	192	0
TAP	107	288	0
TAP	108	192	1
TAP	108	288	1
TAP	109	192	0
TAP	109	288	0
TAP	110	0	1
TAP	110	192	2
TAP	110	288	2
TAP	111	0	3
TAP	111	192	4
TAP	111	288	4
TAP	112	0	5
TAP	112	192	6
TAP	112	288	6
TAP	113	0	0
TAP	113	0	7
TAP	113	192	6
TAP	114	0	5
TAP	114	192	4
TAP	115	0	3
TAP	115	192	2
TAP	116	0	1
BRK	116	192	0
TAP	117	192	0
TAP	117	288	0
TAP	118	0	1
TAP	118	96	1
TAP	118	192	2
TAP	118	288	2
TAP	119	0	3
TAP	119	192	4
TAP	119	288	4
TAP	120	0	5
TAP	120	96	5
TAP	120	192	6
TAP	120	288	6
TAP	121	0	0
TAP	121	0	7
TAP	121	192	6
TAP	121	288	6
TAP	122	0	5
TAP	122	96	5
TAP	122	192	4
TAP	122	288	4
TAP	123	0	3
TAP	123	192	2
TAP	123	288	2
TAP	124	0	1
TAP	124	96	1
XTP	124	192	0
XTP	124	192	7
XTP	125	0	0
XTP	125	0	7
TAP	125	192	7
TAP	125	288	7
TAP	126	0	6
TAP	126	96	6
TAP	126	192	5
TAP	126	288	5
TAP	127	0	4
TAP	127	96	4
TAP	127	192	3
TAP	127	288	3
TAP	128	0	2
TAP	128	96	2
TAP	128	192	1
TAP	128	288	1
TAP	129	0	0
TAP	129	96	0
TAP	129	192	7
TAP	129	288	7
HLD	130	0	0	384
BRK	131	0	7
BRK	132	0	6

T_REC_TAP	202
T_REC_BRK	4
T_REC_XTP	21
T_REC_HLD	13
T_REC_XHO	0
T_REC_STR	4
T_REC_BST	0
T_REC_XST	0
T_REC_TTP	12
T_REC_THO	2
T_REC_SLD	4
T_REC_ALL	262
T_NUM_TAP	239
T_NUM_BRK	4
T_NUM_HLD	15
T_NUM_SLD	4
T_NUM_ALL	262
T_JUDGE_TAP	243
T_JUDGE_HLD	88
T_JUDGE_SLD	4
T_JUDGE_ALL	335
TTM_EACHPAIRS	33
TTM_SCR_TAP	119500
TTM_SCR_BRK	10400
TTM_SCR_HLD	15000
TTM_SCR_SLD	6000
TTM_SCR_ALL	150900
TTM_SCR_S	146000
TTM_SCR_SS	150500
TTM_RAT_ACV	10026

