VERSION	0.00.00	1.03.00
FES_MODE	0
BPM_DEF	180.000	180.000	180.000	180.000
MET_DEF	4	4
RESOLUTION	384
CLK_DEF	384
COMPATIBLE_CODE	MA2

BPM	0	0	180.000
MET	0	0	4	4

TAP	1	0	0
TAP	1	24	7
TAP	1	48	0
TAP	1	72	7
TAP	1	96	1
TAP	1	120	6
TAP	1	144	1
TAP	1	168	6
TAP	1	192	2
XTP	1	288	3
XTP	1	288	5
STR	2	0	2
SCL	2	0	2	96	48	0
TAP	2	0	4
TAP	2	96	7
TAP	2	192	4
TAP	2	240	3
STR	2	288	2
SSL	2	288	2	96	144	6
HLD	3	0	7	240
TAP	3	240	0
TAP	3	288	0
TAP	4	0	3
STR	4	0	5
SCR	4	0	5	96	48	7
TAP	4	96	0
TAP	4	192	3
TAP	4	240	4
STR	4	288	5
SSR	4	288	5	96	144	1
HLD	5	0	0	288
STR	5	288	7
SI_	5	288	7	96	48	3
TAP	6	0	2
STR	6	96	1
SI_	6	96	1	96	48	5
TAP	6	192	6
TAP	6	288	3
TAP	6	288	7
TAP	7	0	2
TAP	7	48	3
TAP	7	96	1
TAP	7	144	6
TAP	7	192	4
TAP	7	240	5
HLD	7	288	0	96
TAP	8	0	5
TAP	8	48	4
TAP	8	96	6
TAP	8	144	1
TAP	8	192	3
TAP	8	240	2
TAP	8	288	5
TAP	8	336	5
STR	9	0	0
SCR	9	0	0	96	144	6
XTP	9	144	7
XTP	9	192	7
TAP	10	0	2
TAP	10	96	2
TAP	10	192	2
TAP	10	288	2
TAP	11	0	5
TAP	11	24	4
TAP	11	48	5
TAP	11	96	2
TAP	11	120	3
TAP	11	144	2
TAP	11	192	5
TAP	11	216	4
TAP	11	240	5
TAP	11	288	3
TAP	11	288	6
TAP	12	0	1
STR	12	48	4
SCR	12	48	4	96	96	7
TAP	12	96	1
XTP	12	144	4
TAP	12	192	1
TAP	12	288	1
TAP	13	0	1
STR	13	48	7
SI_	13	48	7	96	96	4
TAP	13	96	1
XTP	13	144	7
TAP	13	192	1
TAP	13	288	1
TAP	13	288	3
TAP	14	0	1
STR	14	48	3
SI_	14	48	3	96	96	0
TAP	14	96	1
XTP	14	144	3
TAP	14	192	1
TAP	14	288	1
TAP	14	288	7
TTP	15	0	0	E	0	M1
TAP	15	0	1
TTP	15	96	0	C	0	M1
TAP	15	96	1
TAP	15	192	1
TTP	15	192	4	E	0	M1
TAP	15	288	1
TAP	15	288	7
TAP	16	0	6
STR	16	48	3
SCL	16	48	3	96	96	0
TAP	16	96	6
XTP	16	144	3
TAP	16	192	6
TAP	16	288	6
TAP	17	0	6
STR	17	48	0
SI_	17	48	0	96	96	3
TAP	17	96	6
XTP	17	144	0
TAP	17	192	6
TAP	17	288	4
TAP	17	288	6
TAP	18	0	6
STR	18	48	4
SI_	18	48	4	96	96	7
TAP	18	96	6
XTP	18	144	4
TAP	18	192	6
TAP	18	288	6
TAP	19	0	0
TAP	19	0	7
TAP	19	48	0
TAP	19	48	7
STR	19	96	1
SI_	19	96	1	96	48	4
STR	19	96	6
SI_	19	96	6	96	48	3
TAP	19	288	1
TAP	19	288	6
BRK	20	0	0
BRK	20	0	7
TAP	20	96	4
HLD	20	96	6	96
TAP	20	192	2
HLD	20	240	1	96
TAP	20	240	3
TAP	20	336	5
TAP	21	0	4
HLD	21	0	6	96
TAP	21	96	2
HLD	21	144	1	96
TAP	21	144	3
TAP	21	240	3
TAP	21	288	0
TAP	21	288	4
TAP	22	0	3
TAP	22	0	5
HLD	22	96	1	96
TAP	22	96	3
TAP	22	192	5
TAP	22	240	4
HLD	22	240	6	96
TAP	22	336	2
HLD	23	0	1	96
TAP	23	0	3
TAP	23	96	5
TAP	23	144	4
HLD	23	144	6	96
TAP	23	240	4
TAP	23	288	3
TAP	23	288	7
TAP	24	0	2
STR	24	48	4
SUR	24	48	4	96	96	0
TAP	24	96	2
XTP	24	144	4
TAP	24	192	2
TAP	24	288	2
TAP	25	0	2
STR	25	48	0
SCL	25	48	0	96	96	5
TAP	25	96	2
XTP	25	144	0
TAP	25	192	2
TAP	25	288	2
TAP	25	288	6
TAP	26	0	2
STR	26	48	5
SI_	26	48	5	96	96	1
TAP	26	96	2
XTP	26	144	5
TAP	26	192	2
TAP	26	288	2
TTP	27	0	0	C	1	M1
TAP	27	0	2
TAP	27	96	2
TAP	27	192	2
TAP	27	288	2
TAP	27	288	6
TAP	28	0	5
STR	28	48	3
SUL	28	48	3	96	96	7
TAP	28	96	5
XTP	28	144	3
TAP	28	192	5
TAP	28	288	5
TAP	29	0	5
STR	29	48	7
SCR	29	48	7	96	96	2
TAP	29	96	5
XTP	29	144	7
TAP	29	192	5
TAP	29	288	1
TAP	29	288	5
TAP	30	0	5
STR	30	48	2
SI_	30	48	2	96	96	6
TAP	30	96	5
XTP	30	144	2
TAP	30	192	5
TAP	30	288	5
TAP	31	0	4
TAP	31	0	6
STR	31	96	3
SLL	31	96	3	96	96	7
STR	31	96	7
SLL	31	96	7	96	96	3
BRK	32	0	1
BRK	32	0	7
TAP	32	96	4
HLD	32	96	6	96
TAP	32	192	2
HLD	32	240	1	96
TAP	32	240	3
TAP	32	336	5
TAP	33	0	4
HLD	33	0	6	96
TAP	33	96	2
HLD	33	144	1	96
TAP	33	144	3
TAP	33	240	4
TAP	33	288	0
TAP	33	288	5
TAP	34	0	4
TAP	34	0	6
HLD	34	96	1	96
TAP	34	96	3
TAP	34	192	5
TAP	34	240	4
HLD	34	240	6	96
TAP	34	336	2
HLD	35	0	1	96
TAP	35	0	3
TAP	35	96	5
TAP	35	144	4
HLD	35	144	6	96
TAP	35	240	3
TAP	35	288	2
TAP	35	288	7
STR	36	0	1
SXL	36	0	1	96	192	4
XTP	36	96	0
XST	36	144	0
SCL	36	144	0	96	48	5
STR	37	0	6
SXR	37	0	6	96	192	3
XTP	37	96	7
XST	37	144	7
SCR	37	144	7	96	48	2
STR	38	0	0
SCR	38	0	0	96	144	4
TAP	38	96	7
HLD	38	144	7	144
STR	39	0	0
SCR	39	0	0	96	192	6
TAP	39	96	7
HLD	39	144	7	144
STR	40	0	2
SXR	40	0	2	96	192	7
XTP	40	96	3
XST	40	144	3
SCR	40	144	3	96	48	6
STR	41	0	1
SXL	41	0	1	96	192	4
XTP	41	96	0
XST	41	144	0
SCL	41	144	0	96	48	5
TAP	42	0	7
TAP	42	48	7
TAP	42	96	0
TAP	42	144	1
TAP	42	144	5
TAP	42	240	3
STR	42	288	3
SCL	42	288	3	96	192	4
TTP	43	0	0	C	1	M1
BRK	43	288	2
BRK	43	288	6
STR	44	0	0
SV_	44	0	0	96	48	5
STR	44	0	1
SCR	44	0	1	96	48	4
XTP	44	96	0
XTP	44	96	1
STR	44	192	6
SCL	44	192	6	96	48	3
STR	44	192	7
SV_	44	192	7	96	48	2
XTP	44	288	6
XTP	44	288	7
TAP	45	0	1
TAP	45	48	1
TAP	45	96	2
TAP	45	96	3
TAP	45	144	4
TAP	45	192	3
TAP	45	192	5
TAP	45	288	0
TAP	45	288	7
TAP	46	0	2
TAP	46	0	4
STR	46	96	1
SCL	46	96	1	96	96	6
STR	46	96	2
SUL	46	96	2	96	96	5
TAP	47	0	7
TAP	47	48	6
TAP	47	96	4
TAP	47	96	5
TAP	47	144	3
TAP	47	192	2
TAP	47	192	4
STR	47	288	0
SCR	47	288	0	96	96	5
TAP	47	288	6
HLD	48	0	7	96
TAP	48	144	7
TAP	48	192	0
STR	48	288	1
SI_	48	288	1	96	48	5
XTP	49	0	1
STR	49	0	4
SI_	49	0	4	96	48	7
TAP	49	96	2
XTP	49	96	4
BRK	49	192	0
BRK	49	192	3
STR	49	288	2
SI_	49	288	2	96	48	7
TAP	50	0	3
STR	50	96	5
SI_	50	96	5	96	48	0
TAP	50	192	4
STR	50	288	2
SCL	50	288	2	96	144	5
HLD	51	0	4	192
TAP	51	288	2
TAP	51	288	5
STR	52	0	6
SCL	52	0	6	96	48	3
STR	52	0	7
SV_	52	0	7	96	48	2
XTP	52	96	6
XTP	52	96	7
STR	52	192	0
SV_	52	192	0	96	48	5
STR	52	192	1
SCR	52	192	1	96	48	4
XTP	52	288	0
XTP	52	288	1
TAP	53	0	6
TAP	53	48	6
TAP	53	96	4
TAP	53	96	5
TAP	53	144	3
TAP	53	192	2
TAP	53	192	4
TAP	53	288	0
TAP	53	288	7
TAP	54	0	3
TAP	54	0	4
STR	54	96	7
SSR	54	96	7	96	96	3
TAP	54	192	3
TAP	54	288	2
TAP	55	0	1
TAP	55	48	1
TAP	55	96	2
TAP	55	96	3
TAP	55	144	4
TAP	55	192	3
TAP	55	192	5
TAP	55	288	1
STR	55	288	7
SCL	55	288	7	96	96	2
HLD	56	0	0	96
TAP	56	144	0
TAP	56	192	7
TAP	56	288	2
TAP	56	288	6
STR	57	0	0
SF_	57	0	0	96	48	4
XTP	57	96	0
XTP	57	192	2
XTP	57	192	6
STR	57	288	5
SI_	57	288	5	96	48	0
TAP	58	0	4
STR	58	96	2
SI_	58	96	2	96	48	7
TAP	58	192	3
STR	58	288	5
SCR	58	288	5	96	144	2
TAP	59	0	3
TTP	59	192	0	C	1	M1
TTP	59	192	2	B	0	M1
TTP	59	192	5	B	0	M1
TAP	60	0	1
STR	60	0	7
SCL	60	0	7	96	48	4
TAP	60	96	0
TAP	60	192	2
TAP	60	240	3
STR	60	288	4
SSL	60	288	4	96	192	0
HLD	61	0	1	192
TAP	61	240	1
TAP	61	288	2
TAP	61	336	4
STR	62	0	3
SCL	62	0	3	96	48	0
TAP	62	0	5
TAP	62	96	7
TAP	62	192	5
TAP	62	240	4
STR	62	288	3
SSR	62	288	3	96	192	7
HLD	63	0	6	288
STR	63	288	0
SI_	63	288	0	96	48	4
TAP	64	0	5
STR	64	96	6
SI_	64	96	6	96	48	2
TAP	64	192	1
TAP	64	288	0
TAP	64	288	4
TAP	65	0	5
TAP	65	48	4
TAP	65	96	6
TAP	65	144	1
TAP	65	192	3
TAP	65	240	2
HLD	65	288	7	96
TAP	66	0	2
TAP	66	48	3
TAP	66	96	1
TAP	66	144	6
TAP	66	192	4
TAP	66	240	5
TAP	66	288	1
TAP	66	288	6
TAP	67	0	0
TAP	67	24	7
TAP	67	48	0
TAP	67	72	7
TAP	67	96	0
TAP	67	120	7
TAP	67	144	0
TAP	67	168	7
STR	67	192	0
SF_	67	192	0	96	48	4
XTP	67	288	0
BRK	68	0	7
TAP	68	96	0
TAP	68	96	5
TAP	68	192	1
TAP	68	240	0
HLD	68	240	2	96
TAP	68	336	6
HLD	69	0	5	96
TAP	69	0	7
TAP	69	96	1
TAP	69	144	0
HLD	69	144	2	96
TAP	69	240	0
TAP	69	288	3
TAP	69	288	7
TAP	70	0	0
TAP	70	0	6
HLD	70	96	2	96
TAP	70	96	7
TAP	70	192	6
HLD	70	240	5	96
TAP	70	240	7
TAP	70	336	1
TAP	71	0	0
HLD	71	0	2	96
TAP	71	96	6
HLD	71	144	5	96
TAP	71	144	7
TAP	71	240	7
TAP	71	288	0
TAP	71	288	4
STR	72	0	3
SCL	72	0	3	96	192	6
TAP	72	0	5
TAP	72	96	4
TAP	72	192	4
TAP	72	288	4
TAP	73	0	4
STR	73	0	6
SCR	73	0	6	96	192	3
TAP	73	96	4
TAP	73	192	4
TAP	73	288	4
STR	74	0	4
SCR	74	0	4	96	192	1
TAP	74	96	3
TAP	74	192	3
TAP	74	288	3
STR	75	0	1
SCL	75	0	1	96	192	4
STR	75	0	4
SCR	75	0	4	96	192	1
STR	76	0	3
SV_	76	0	3	96	96	0
STR	76	0	5
SV_	76	0	5	96	96	0
STR	76	288	7
SI_	76	288	7	96	48	3
STR	77	0	0
SI_	77	0	0	96	48	6
STR	77	96	5
SI_	77	96	5	96	48	1
XST	77	288	1
SXR	77	288	1	96	288	4
XST	77	288	4
SCR	77	288	4	96	288	4
THO	79	0	0	96	C	1	M1
TTP	79	0	1	B	0	M1
TTP	79	0	6	B	0	M1
TTP	80	0	0	C	1	M1
TTP	80	0	2	B	0	M1
TTP	80	0	3	B	0	M1
TTP	80	0	4	B	0	M1
TTP	80	0	5	B	0	M1
XTP	80	240	0
XTP	80	240	7
XTP	80	288	0
XTP	80	288	7
STR	81	0	2
SCL	81	0	2	96	48	7
STR	81	0	3
SV_	81	0	3	96	48	6
XTP	81	96	2
XTP	81	96	3
STR	81	192	4
SV_	81	192	4	96	48	1
STR	81	192	5
SCR	81	192	5	96	48	0
XTP	81	288	4
XTP	81	288	5
TAP	82	0	2
TAP	82	48	3
TAP	82	96	4
TAP	82	96	5
TAP	82	144	6
TAP	82	192	0
TAP	82	192	7
TAP	82	288	1
TAP	82	288	6
TAP	83	0	3
TAP	83	0	5
STR	83	96	5
SUR	83	96	5	96	96	2
STR	83	96	6
SCR	83	96	6	96	96	1
TAP	84	0	0
TAP	84	48	1
TAP	84	96	2
TAP	84	96	4
TAP	84	144	5
TAP	84	192	0
TAP	84	192	6
TAP	84	288	1
STR	84	288	7
SCL	84	288	7	96	96	2
HLD	85	0	0	96
TAP	85	144	0
TAP	85	192	7
STR	85	288	6
SI_	85	288	6	96	48	2
STR	86	0	3
SI_	86	0	3	96	48	0
XTP	86	0	6
XTP	86	96	3
TAP	86	96	5
BRK	86	192	4
BRK	86	192	7
STR	86	288	5
SI_	86	288	5	96	48	0
TAP	87	0	4
STR	87	96	2
SI_	87	96	2	96	48	7
TAP	87	192	3
STR	87	288	5
SCR	87	288	5	96	144	2
HLD	88	0	3	192
TAP	88	288	1
TAP	88	288	6
STR	89	0	4
SV_	89	0	4	96	48	1
STR	89	0	5
SCR	89	0	5	96	48	0
XTP	89	96	4
XTP	89	96	5
STR	89	192	2
SCL	89	192	2	96	48	7
STR	89	192	3
SV_	89	192	3	96	48	6
XTP	89	288	2
XTP	89	288	3
TAP	90	0	5
TAP	90	48	4
TAP	90	96	2
TAP	90	96	3
TAP	90	144	1
TAP	90	192	0
TAP	90	192	7
TAP	90	288	2
TAP	90	288	6
TAP	91	0	3
TAP	91	0	5
STR	91	96	0
SSL	91	96	0	96	96	4
TAP	91	192	4
TAP	91	288	5
TAP	92	0	7
TAP	92	48	6
TAP	92	96	3
TAP	92	96	5
TAP	92	144	2
TAP	92	192	1
TAP	92	192	7
STR	92	288	0
SCR	92	288	0	96	96	5
TAP	92	288	6
HLD	93	0	7	96
TAP	93	144	7
TAP	93	192	0
TAP	93	288	1
TAP	93	288	5
STR	94	0	7
SF_	94	0	7	96	48	3
XTP	94	96	7
XTP	94	192	1
XTP	94	192	5
STR	94	288	6
SI_	94	288	6	96	48	3
TAP	95	0	7
STR	95	96	1
SI_	95	96	1	96	48	4
TAP	95	192	0
STR	95	288	5
SCR	95	288	5	96	96	2
TAP	96	0	3
TTP	96	192	0	C	1	M1
TTP	96	192	2	B	0	M1
TTP	96	192	5	B	0	M1
HLD	96	288	0	192
TTP	97	0	1	E	0	M1
TTP	97	16	2	E	0	M1
TTP	97	32	3	E	0	M1
HLD	97	96	7	192
TTP	97	192	7	E	0	M1
TTP	97	208	6	E	0	M1
TTP	97	224	5	E	0	M1
TAP	97	288	0
TTP	98	0	0	C	1	M1
TTP	98	0	1	B	0	M1
TTP	98	0	2	B	0	M1
TTP	98	0	5	B	0	M1
TTP	98	0	6	B	0	M1
BRK	98	288	0
BRK	98	288	7
STR	99	0	2
SI_	99	0	2	96	48	7
TAP	99	0	4
STR	99	96	5
SI_	99	96	5	96	48	0
STR	99	192	1
SI_	99	192	1	96	48	4
STR	99	288	6
SCL	99	288	6	96	144	7
TAP	100	0	0
TAP	100	240	2
TAP	100	240	3
TAP	100	288	1
TAP	100	288	4
TAP	101	0	3
STR	101	0	5
SI_	101	0	5	96	48	0
STR	101	96	2
SI_	101	96	2	96	48	7
STR	101	192	6
SI_	101	192	6	96	48	3
STR	101	288	1
SCR	101	288	1	96	144	0
TAP	102	0	7
TAP	102	240	4
TAP	102	240	5
TAP	102	288	3
TAP	102	288	6
STR	103	0	6
SCL	103	0	6	96	48	3
STR	103	0	7
SCR	103	0	7	96	48	2
STR	103	192	0
SCL	103	192	0	96	48	5
STR	103	192	1
SCR	103	192	1	96	48	4
TAP	104	0	6
TAP	104	48	6
TAP	104	96	4
TAP	104	144	7
TAP	104	192	2
TAP	104	240	2
TAP	104	288	1
TAP	104	288	3
STR	105	0	5
SI_	105	0	5	96	48	2
TAP	105	48	5
STR	105	96	1
SI_	105	96	1	96	48	6
TAP	105	144	1
STR	105	192	4
SI_	105	192	4	96	48	0
TAP	105	240	4
STR	105	288	1
SCR	105	288	1	96	96	5
TAP	105	336	1
HLD	106	0	7	144
TAP	106	144	1
TAP	106	192	0
TAP	106	216	7
TAP	106	240	0
TAP	106	264	7
TAP	106	288	1
TAP	106	312	6
STR	106	336	1
SXR	106	336	1	96	1152	4
TAP	106	360	6
HLD	107	0	1	1248

T_REC_TAP	387
T_REC_BRK	13
T_REC_XTP	51
T_REC_HLD	41
T_REC_XHO	0
T_REC_STR	108
T_REC_BST	0
T_REC_XST	6
T_REC_TTP	29
T_REC_THO	1
T_REC_SLD	114
T_REC_ALL	750
T_NUM_TAP	581
T_NUM_BRK	13
T_NUM_HLD	42
T_NUM_SLD	114
T_NUM_ALL	750
T_JUDGE_TAP	594
T_JUDGE_HLD	132
T_JUDGE_SLD	114
T_JUDGE_ALL	840
TTM_EACHPAIRS	134
TTM_SCR_TAP	290500
TTM_SCR_BRK	33800
TTM_SCR_HLD	42000
TTM_SCR_SLD	171000
TTM_SCR_ALL	537300
TTM_SCR_S	519950
TTM_SCR_SS	536000
TTM_RAT_ACV	10024

