VERSION	0.00.00	1.03.00
FES_MODE	0
BPM_DEF	180.000	180.000	180.000	180.000
MET_DEF	4	4
RESOLUTION	384
CLK_DEF	384
COMPATIBLE_CODE	MA2

BPM	0	0	180.000
MET	0	0	4	4

HLD	2	0	1	96
TAP	2	96	3
TAP	2	192	0
STR	2	288	0
SCR	2	288	0	96	192	5
HLD	3	0	7	192
TAP	3	288	0
TAP	3	288	7
HLD	4	0	6	96
TAP	4	96	4
TAP	4	192	7
STR	4	288	7
SCL	4	288	7	96	192	2
HLD	5	0	0	192
TAP	5	288	0
TAP	5	288	7
HLD	6	0	2	96
TAP	6	96	3
HLD	6	192	5	96
TAP	6	288	4
HLD	7	0	2	96
HLD	7	96	3	96
HLD	7	192	4	96
TAP	7	288	5
TAP	8	0	5
TAP	8	96	4
TAP	8	96	6
TAP	8	192	3
TAP	8	288	2
TAP	8	288	4
HLD	9	0	3	96
HLD	9	0	4	96
TTP	9	192	2	B	0	M1
TTP	9	192	2	E	0	M1
TTP	9	192	5	B	0	M1
TTP	9	192	6	E	0	M1
THO	10	0	0	288	C	0	M1
TAP	11	0	7
TAP	11	96	7
TAP	11	192	7
BRK	11	288	7
HLD	12	0	1	288
TAP	12	192	3
TAP	12	288	3
HLD	13	0	5	288
TAP	13	192	4
TAP	13	288	4
HLD	14	0	2	288
TAP	14	192	3
TAP	14	288	3
HLD	15	0	6	192
TAP	15	192	4
TAP	15	288	3
TAP	15	288	7
HLD	16	0	2	288
TAP	16	96	0
TAP	16	192	0
TAP	16	288	0
HLD	17	0	6	288
TAP	17	96	7
TAP	17	192	7
TAP	17	288	7
HLD	18	0	2	288
TAP	18	96	3
TAP	18	192	3
TAP	18	288	3
THO	19	0	0	192	C	0	M1
TAP	19	192	0
BRK	19	288	0
HLD	20	0	6	96
TAP	20	96	7
TAP	20	192	5
TAP	20	240	5
TAP	20	336	4
TAP	21	0	4
TAP	21	96	3
TAP	21	144	3
TAP	21	240	2
TAP	21	288	2
TAP	21	288	3
HLD	22	0	1	96
TAP	22	96	0
TAP	22	192	2
TAP	22	240	2
TAP	22	336	3
TAP	23	0	3
TAP	23	96	4
TAP	23	144	4
TAP	23	240	5
TAP	23	288	4
TAP	23	288	5
HLD	24	0	6	288
TAP	24	96	3
TAP	24	192	4
TAP	24	288	3
HLD	25	0	1	288
TAP	25	96	4
TAP	25	192	3
STR	25	288	4
SCR	25	288	4	96	240	3
BST	27	0	1
SXR	27	0	1	96	240	4
HLD	28	0	5	288
TAP	28	96	0
TAP	28	192	7
TAP	28	288	0
HLD	29	0	2	288
TAP	29	96	7
TAP	29	192	0
TAP	29	288	7
TAP	30	0	3
TAP	30	0	7
TAP	30	96	2
TAP	30	96	6
TAP	30	192	1
TAP	30	192	5
TAP	30	288	0
TAP	30	288	4
STR	31	0	0
SLR	31	0	0	96	192	4
STR	31	0	4
SLR	31	0	4	96	192	0
HLD	32	0	2	96
TAP	32	96	0
TAP	32	192	2
TAP	32	240	2
TAP	32	336	7
TAP	33	0	7
TAP	33	96	0
TAP	33	144	0
TAP	33	240	5
TAP	33	288	4
TAP	33	288	5
HLD	34	0	5	96
TAP	34	96	7
TAP	34	192	5
TAP	34	240	5
TAP	34	336	0
TAP	35	0	0
TAP	35	96	7
TAP	35	144	7
TAP	35	240	2
TAP	35	288	2
TAP	35	288	3
STR	36	0	2
SLL	36	0	2	96	192	5
STR	37	0	6
SLL	37	0	6	96	192	1
HLD	38	0	2	144
HLD	38	0	7	144
THO	39	0	0	144	C	0	M1
TAP	39	288	0
TAP	39	288	7
HLD	40	0	6	96
HLD	40	0	7	96
HLD	40	144	0	96
HLD	40	144	5	96
TAP	40	288	1
TAP	40	288	4
HLD	41	0	0	96
HLD	41	0	1	96
HLD	41	144	2	96
HLD	41	144	7	96
TAP	41	288	3
TAP	41	288	6
TAP	42	0	3
TAP	42	48	4
HLD	42	144	1	144
HLD	42	144	6	144
TTP	43	0	0	C	1	M1
TTP	43	0	1	B	0	M1
TTP	43	0	2	B	0	M1
TTP	43	0	5	B	0	M1
TTP	43	0	6	B	0	M1
TAP	43	240	0
STR	43	288	0
SI_	43	288	0	96	96	4
TAP	44	0	7
STR	44	96	6
SI_	44	96	6	96	96	2
TAP	44	192	0
STR	44	288	1
SCR	44	288	1	96	144	5
TAP	45	0	6
TAP	45	240	7
STR	45	288	7
SI_	45	288	7	96	96	3
TAP	46	0	0
STR	46	96	1
SI_	46	96	1	96	96	5
TAP	46	192	7
STR	46	288	6
SCR	46	288	6	96	144	2
TAP	47	0	3
TAP	47	288	0
TAP	47	288	7
HLD	48	0	6	96
TAP	48	96	4
HLD	48	192	2	96
TAP	48	288	3
TAP	49	0	1
TAP	49	48	0
TAP	49	96	1
TAP	49	192	2
TAP	49	192	7
TAP	49	288	0
TAP	49	288	6
HLD	50	0	1	96
TAP	50	96	3
HLD	50	192	5	96
TAP	50	288	4
HLD	51	0	3	144
HLD	51	0	6	144
TAP	51	240	7
STR	51	288	7
SI_	51	288	7	96	96	3
TAP	52	0	0
STR	52	96	1
SI_	52	96	1	96	96	5
TAP	52	192	7
STR	52	288	6
SCL	52	288	6	96	144	2
TAP	53	0	1
TAP	53	240	0
STR	53	288	0
SI_	53	288	0	96	96	4
TAP	54	0	7
STR	54	96	6
SI_	54	96	6	96	96	2
TAP	54	192	0
STR	54	288	1
SCL	54	288	1	96	144	5
TAP	55	0	4
TAP	55	288	0
TAP	55	288	7
HLD	56	0	1	96
TAP	56	96	3
HLD	56	192	5	96
TAP	56	288	4
TAP	57	0	6
TAP	57	48	7
TAP	57	96	6
TAP	57	192	0
TAP	57	192	5
TAP	57	288	1
TAP	57	288	7
HLD	58	0	6	96
TAP	58	96	4
HLD	58	192	2	96
TAP	58	288	3
HLD	59	0	4	96
HLD	59	0	5	96
BRK	59	192	3
BRK	59	192	6
HLD	60	0	6	96
TAP	60	96	7
TAP	60	192	5
TAP	60	240	4
STR	60	288	6
SCL	60	288	6	96	192	1
HLD	61	0	3	192
TAP	61	288	0
TAP	61	288	7
HLD	62	0	1	96
TAP	62	96	0
TAP	62	192	2
TAP	62	240	3
STR	62	288	1
SCR	62	288	1	96	192	6
HLD	63	0	4	192
TAP	63	288	0
TAP	63	288	7
HLD	64	0	6	96
TAP	64	96	7
HLD	64	192	2	96
TAP	64	288	3
HLD	65	0	5	96
HLD	65	96	4	96
HLD	65	192	3	96
TAP	65	288	2
TAP	66	0	2
TAP	66	48	2
TAP	66	96	1
TAP	66	96	3
TAP	66	192	4
TAP	66	240	4
TAP	66	288	3
TAP	66	288	5
HLD	67	0	3	144
TAP	67	144	4
TAP	67	192	3
BRK	67	288	2
BRK	67	288	5
TAP	68	0	1
TAP	68	96	0
TAP	68	96	2
TAP	68	192	1
HLD	68	240	1	96
TAP	68	336	7
HLD	69	0	7	96
TAP	69	96	3
HLD	69	144	3	96
TAP	69	240	5
TAP	69	288	3
TAP	69	288	5
TAP	70	0	6
TAP	70	96	5
TAP	70	96	7
TAP	70	192	6
HLD	70	240	6	96
TAP	70	336	0
HLD	71	0	0	96
TAP	71	96	4
HLD	71	144	4	96
TAP	71	240	2
TAP	71	288	2
TAP	71	288	4
HLD	72	0	2	288
TTP	72	192	4	E	0	M1
TTP	72	288	5	B	0	M1
HLD	73	0	6	288
TTP	73	192	3	B	0	M1
TTP	73	288	1	B	0	M1
HLD	74	0	0	144
HLD	74	0	4	144
THO	75	0	0	144	C	0	M1
TAP	75	288	0
TAP	75	288	7
HLD	76	0	0	96
HLD	76	0	1	96
HLD	76	144	2	96
HLD	76	144	7	96
TAP	76	288	3
TAP	76	288	6
HLD	77	0	6	96
HLD	77	0	7	96
HLD	77	144	0	96
HLD	77	144	5	96
TAP	77	288	1
TAP	77	288	4
THO	78	0	0	384	C	1	M1
BRK	80	0	1
BRK	80	0	6
TAP	80	240	0
STR	80	288	0
SUR	80	288	0	96	96	4
TAP	81	0	7
STR	81	96	6
SUL	81	96	6	96	96	2
TAP	81	192	0
STR	81	288	1
SCR	81	288	1	96	144	5
TAP	82	0	6
TAP	82	240	7
STR	82	288	7
SUL	82	288	7	96	96	3
TAP	83	0	0
STR	83	96	1
SUR	83	96	1	96	96	5
TAP	83	192	7
STR	83	288	6
SCR	83	288	6	96	144	2
TAP	84	0	3
TAP	84	288	0
TAP	84	288	7
HLD	85	0	6	96
TAP	85	96	4
HLD	85	192	2	96
TAP	85	288	3
TAP	86	0	5
TAP	86	48	4
TAP	86	96	3
TAP	86	96	6
TAP	86	192	4
TAP	86	192	5
TAP	86	288	0
TAP	86	288	6
HLD	87	0	1	96
TAP	87	96	0
HLD	87	192	5	96
TAP	87	288	4
HLD	88	0	3	144
HLD	88	0	6	144
TAP	88	240	7
STR	88	288	7
SUL	88	288	7	96	96	3
TAP	89	0	0
STR	89	96	1
SUR	89	96	1	96	96	5
TAP	89	192	7
STR	89	288	6
SCL	89	288	6	96	144	2
TAP	90	0	1
TAP	90	240	0
STR	90	288	0
SUR	90	288	0	96	96	4
TAP	91	0	7
STR	91	96	6
SUL	91	96	6	96	96	2
TAP	91	192	0
STR	91	288	1
SCL	91	288	1	96	144	5
TAP	92	0	4
TAP	92	288	0
TAP	92	288	7
HLD	93	0	1	96
TAP	93	96	3
HLD	93	192	5	96
TAP	93	288	4
TAP	94	0	2
TAP	94	48	3
TAP	94	96	1
TAP	94	96	4
TAP	94	192	2
TAP	94	192	3
TAP	94	288	1
TAP	94	288	7
HLD	95	0	6	96
TAP	95	96	7
HLD	95	192	1	96
TAP	95	288	2
HLD	96	0	3	96
HLD	96	0	4	96
TAP	96	192	2
TAP	96	192	5
TAP	96	288	0
TAP	96	288	1
HLD	97	0	0	96
HLD	97	0	1	96
TAP	97	192	2
TAP	97	192	7
STR	97	288	3
SLR	97	288	3	96	192	1
STR	97	288	6
SLL	97	288	6	96	192	0
BRK	98	288	2
BRK	98	288	7
HLD	99	0	6	96
TAP	99	96	7
TAP	99	192	5
TAP	99	240	4
STR	99	288	5
SXR	99	288	5	96	288	2
HLD	100	0	0	288
HLD	101	0	1	96
TAP	101	96	0
TAP	101	192	2
TAP	101	240	3
STR	101	288	2
SXR	101	288	2	96	288	7
HLD	102	0	5	288
HLD	103	0	6	96
TAP	103	96	4
HLD	103	192	1	96
TAP	103	288	3
HLD	104	0	5	96
HLD	104	96	4	96
HLD	104	192	3	96
TAP	104	288	2
TAP	105	0	1
TAP	105	48	0
TAP	105	96	1
TAP	105	192	6
TAP	105	240	7
TAP	105	288	6
HLD	106	0	3	96
TAP	106	96	4
TAP	106	144	3
HLD	106	192	5	96
TAP	106	288	4
BRK	107	0	3
BRK	107	0	6

T_REC_TAP	263
T_REC_BRK	12
T_REC_XTP	0
T_REC_HLD	103
T_REC_XHO	0
T_REC_STR	37
T_REC_BST	1
T_REC_XST	0
T_REC_TTP	13
T_REC_THO	5
T_REC_SLD	38
T_REC_ALL	472
T_NUM_TAP	313
T_NUM_BRK	13
T_NUM_HLD	108
T_NUM_SLD	38
T_NUM_ALL	472
T_JUDGE_TAP	326
T_JUDGE_HLD	307
T_JUDGE_SLD	38
T_JUDGE_ALL	671
TTM_EACHPAIRS	68
TTM_SCR_TAP	156500
TTM_SCR_BRK	33800
TTM_SCR_HLD	108000
TTM_SCR_SLD	57000
TTM_SCR_ALL	355300
TTM_SCR_S	343400
TTM_SCR_SS	354000
TTM_RAT_ACV	10036

