VERSION	0.00.00	1.03.00
FES_MODE	0
BPM_DEF	180.000	180.000	180.000	180.000
MET_DEF	4	4
RESOLUTION	384
CLK_DEF	384
COMPATIBLE_CODE	MA2

BPM	0	0	180.000
MET	0	0	4	4

XTP	2	0	2
TAP	2	96	2
TAP	2	192	2
TAP	2	192	3
TAP	3	0	5
TAP	3	96	5
TAP	3	192	4
TAP	3	192	5
TAP	4	0	2
TAP	4	96	2
TAP	4	192	2
TAP	4	192	3
TAP	5	0	4
TAP	5	96	4
TAP	5	192	3
TAP	5	192	5
TAP	6	0	6
TAP	6	96	6
TAP	6	192	6
TAP	6	192	7
TAP	7	0	1
TAP	7	96	1
TAP	7	192	0
TAP	7	192	1
TAP	8	0	6
TAP	8	96	6
TAP	8	192	6
TAP	8	192	7
TAP	9	0	0
TAP	9	96	0
BRK	9	192	1
BRK	9	192	6
STR	10	0	0
SI_	10	0	0	96	192	3
XTP	11	0	4
XTP	11	96	3
XTP	11	96	4
XTP	11	192	3
XTP	11	192	4
HLD	12	0	5	192
TAP	12	192	4
HLD	13	0	2	192
TAP	13	192	3
HLD	14	0	5	192
TAP	14	192	4
TAP	15	0	3
TAP	15	96	3
TAP	15	192	2
TAP	15	192	4
HLD	16	0	1	192
TAP	16	192	0
HLD	17	0	6	192
TAP	17	192	7
HLD	18	0	1	192
TAP	18	192	0
TAP	19	0	7
TAP	19	96	7
TAP	19	192	1
TAP	19	192	6
BRK	20	0	2
TAP	20	96	2
TAP	20	192	3
TAP	20	288	3
TAP	21	0	4
TAP	21	96	4
TAP	21	192	3
TAP	21	192	5
TAP	22	0	5
TAP	22	96	5
TAP	22	192	4
TAP	22	288	4
TAP	23	0	3
TAP	23	96	3
TAP	23	192	2
TAP	23	192	4
TAP	24	0	1
TAP	24	96	1
TAP	24	192	0
TAP	25	0	6
TAP	25	96	6
TAP	25	192	7
TAP	26	0	1
TAP	26	96	1
TAP	26	192	0
TAP	27	0	7
TAP	27	96	7
TAP	27	192	0
TAP	27	192	6
TAP	28	0	5
TAP	28	96	5
TAP	28	192	4
TAP	29	0	2
TAP	29	96	2
TAP	29	192	3
TAP	30	0	5
TAP	30	96	5
TAP	30	192	4
TAP	31	0	3
TAP	31	0	4
TAP	31	96	3
TAP	31	96	4
TAP	31	192	2
TAP	31	192	5
BRK	32	0	6
TAP	32	96	6
TAP	32	192	7
TAP	32	288	7
TAP	33	0	0
TAP	33	96	0
TAP	33	192	1
TAP	33	192	7
TAP	34	0	1
TAP	34	96	1
TAP	34	192	0
TAP	34	288	0
TAP	35	0	7
TAP	35	96	7
TAP	35	192	1
TAP	35	192	6
TTP	36	0	1	B	0	L1
TTP	37	0	2	B	0	L1
TTP	38	0	3	B	0	L1
TTP	39	0	4	B	0	L1
TTP	40	0	5	B	0	L1
TTP	41	0	6	B	0	L1
TAP	42	0	6
TAP	42	96	6
TAP	42	192	7
TAP	43	0	0
TAP	43	0	7
TAP	43	96	0
TAP	43	96	7
BRK	43	192	1
BRK	43	192	6
TAP	44	0	2
TAP	44	96	2
TAP	44	192	2
TAP	44	192	3
TAP	44	288	2
TAP	44	288	3
TAP	45	0	1
TAP	45	96	0
TAP	45	192	1
TAP	45	192	7
TAP	46	0	6
TAP	46	96	6
TAP	46	192	6
TAP	46	192	7
TAP	46	288	6
TAP	46	288	7
TAP	47	0	5
TAP	47	96	4
TAP	47	192	3
TAP	47	192	4
TAP	48	0	5
TAP	48	96	5
TAP	48	192	4
TAP	48	192	5
TAP	48	288	4
TAP	48	288	5
TAP	49	0	6
TAP	49	96	7
TAP	49	192	0
TAP	49	192	6
TAP	50	0	1
TAP	50	96	1
TAP	50	192	0
TAP	50	192	1
TAP	50	288	0
TAP	50	288	1
TAP	51	0	2
TAP	51	96	3
TAP	51	96	4
XTP	51	192	2
XTP	51	192	5
TAP	52	0	1
TAP	52	96	0
TAP	52	96	1
TAP	52	192	1
TAP	52	288	0
TAP	52	288	1
TAP	53	0	2
TAP	53	96	3
TAP	53	192	2
TAP	53	192	4
TAP	54	0	5
TAP	54	96	4
TAP	54	96	5
TAP	54	192	5
TAP	54	288	4
TAP	54	288	5
TAP	55	0	6
TAP	55	96	7
TAP	55	192	0
TAP	55	192	7
TAP	56	0	6
TAP	56	96	6
TAP	56	96	7
TAP	56	192	6
TAP	56	288	6
TAP	56	288	7
TAP	57	0	5
TAP	57	96	4
TAP	57	192	3
TAP	57	192	5
TAP	58	0	2
TAP	58	96	2
TAP	58	96	3
TAP	58	192	2
TAP	58	288	2
TAP	58	288	3
TAP	59	0	1
TAP	59	96	0
TAP	59	96	7
XTP	59	192	1
XTP	59	192	6
HLD	60	0	1	96
TAP	60	96	0
TAP	60	192	0
HLD	61	0	6	96
TAP	61	96	7
TAP	61	192	7
HLD	62	0	1	96
TAP	62	96	0
TAP	62	192	0
TAP	63	0	7
TAP	63	96	7
TAP	63	192	0
TAP	63	192	6
HLD	64	0	5	96
TAP	64	96	4
TAP	64	192	4
HLD	65	0	2	96
TAP	65	96	3
TAP	65	192	3
TAP	66	0	4
TAP	66	96	4
TAP	66	192	3
TAP	66	288	3
TAP	67	0	3
TAP	67	0	4
TAP	67	96	3
TAP	67	96	4
XTP	67	192	2
XTP	67	192	5
HLD	68	0	6	192
TAP	68	192	7
TAP	68	288	7
TAP	69	0	0
TAP	69	96	0
TAP	69	192	1
TAP	69	192	7
HLD	70	0	2	192
TAP	70	192	3
TAP	70	288	3
TAP	71	0	4
TAP	71	96	4
TAP	71	192	2
TAP	71	192	5
TTP	72	0	6	B	0	L1
TTP	73	0	5	B	0	L1
TTP	74	0	4	B	0	L1
TTP	75	0	3	B	0	L1
TTP	76	0	2	B	0	L1
TTP	77	0	1	B	0	L1
THO	78	0	0	384	C	1	L1
XTP	80	0	0
XTP	80	0	7
TAP	81	0	6
TAP	81	96	6
TAP	81	192	6
TAP	81	192	7
TAP	81	288	6
TAP	81	288	7
TAP	82	0	5
TAP	82	96	4
TAP	82	192	3
TAP	82	192	5
TAP	83	0	2
TAP	83	96	2
TAP	83	192	2
TAP	83	192	3
TAP	83	288	2
TAP	83	288	3
TAP	84	0	1
TAP	84	96	0
TAP	84	192	0
TAP	84	192	7
TAP	85	0	1
TAP	85	96	1
TAP	85	192	0
TAP	85	192	1
TAP	85	288	0
TAP	85	288	1
TAP	86	0	2
TAP	86	96	3
TAP	86	192	2
TAP	86	192	4
TAP	87	0	5
TAP	87	96	5
TAP	87	192	4
TAP	87	192	5
TAP	87	288	4
TAP	87	288	5
TAP	88	0	6
TAP	88	96	0
TAP	88	96	7
TAP	88	192	1
TAP	88	192	6
TAP	89	0	2
TAP	89	96	2
TAP	89	96	3
TAP	89	192	2
TAP	89	288	2
TAP	89	288	3
TAP	90	0	1
TAP	90	96	0
TAP	90	192	1
TAP	90	192	7
TAP	91	0	6
TAP	91	96	6
TAP	91	96	7
TAP	91	192	6
TAP	91	288	6
TAP	91	288	7
TAP	92	0	5
TAP	92	96	4
TAP	92	192	3
TAP	92	192	5
TAP	93	0	6
TAP	93	96	4
TAP	93	96	5
TAP	93	192	5
TAP	93	288	4
TAP	93	288	5
TAP	94	0	6
TAP	94	96	7
TAP	94	192	0
TAP	94	192	6
TAP	95	0	1
TAP	95	96	0
TAP	95	96	1
TAP	95	192	1
TAP	95	288	0
TAP	95	288	1
TAP	96	0	2
TAP	96	96	3
TAP	96	96	4
TAP	96	192	3
TAP	96	192	4
XTP	97	0	2
XTP	97	0	5
XTP	97	192	1
XTP	97	192	6
STR	98	0	0
SI_	98	0	0	96	192	4
STR	98	0	7
SI_	98	0	7	96	192	3
TAP	99	0	2
TAP	99	96	2
TAP	99	192	1
TAP	99	288	1
TAP	100	0	0
TAP	100	96	0
TAP	100	192	1
TAP	100	192	7
TAP	101	0	6
TAP	101	96	6
TAP	101	192	5
TAP	101	288	5
TAP	102	0	4
TAP	102	96	3
TAP	102	96	4
TAP	102	192	2
TAP	102	192	5
TAP	103	0	1
TAP	103	96	1
TAP	103	192	0
TAP	103	288	0
TAP	104	0	7
TAP	104	96	7
TAP	104	192	0
TAP	104	192	6
TAP	105	0	5
TAP	105	96	5
TAP	105	192	4
TAP	105	288	4
TAP	106	0	3
TAP	106	0	4
TAP	106	96	3
TAP	106	96	4
TAP	106	192	2
TAP	106	192	5
BRK	107	0	1
BRK	107	0	6

T_REC_TAP	337
T_REC_BRK	8
T_REC_XTP	18
T_REC_HLD	13
T_REC_XHO	0
T_REC_STR	3
T_REC_BST	0
T_REC_XST	0
T_REC_TTP	12
T_REC_THO	1
T_REC_SLD	3
T_REC_ALL	395
T_NUM_TAP	370
T_NUM_BRK	8
T_NUM_HLD	14
T_NUM_SLD	3
T_NUM_ALL	395
T_JUDGE_TAP	378
T_JUDGE_HLD	50
T_JUDGE_SLD	3
T_JUDGE_ALL	431
TTM_EACHPAIRS	93
TTM_SCR_TAP	185000
TTM_SCR_BRK	20800
TTM_SCR_HLD	14000
TTM_SCR_SLD	4500
TTM_SCR_ALL	224300
TTM_SCR_S	216800
TTM_SCR_SS	223500
TTM_RAT_ACV	10035

