VERSION	0.00.00	1.03.00
FES_MODE	0
BPM_DEF	180.000	180.000	180.000	180.000
MET_DEF	4	4
RESOLUTION	384
CLK_DEF	384
COMPATIBLE_CODE	MA2

BPM	0	0	180.000
MET	0	0	4	4

TAP	2	0	3
TAP	3	0	3
TAP	4	0	4
TAP	5	0	4
TAP	6	0	3
TAP	7	0	3
TAP	8	0	4
TAP	9	0	4
BRK	10	0	3
BRK	10	0	4
TAP	12	0	4
TAP	13	0	4
TAP	14	0	5
TAP	15	0	5
TAP	16	0	6
TAP	17	0	6
TAP	18	0	7
XTP	19	0	0
XTP	19	0	7
HLD	20	0	0	384
HLD	22	0	7	384
TAP	24	0	0
TAP	25	0	0
TAP	26	0	1
XTP	27	0	1
TAP	28	0	2
TAP	29	0	2
TAP	30	0	3
XTP	31	0	3
XTP	31	0	4
HLD	32	0	4	384
HLD	34	0	3	384
TTP	36	0	2	B	0	L1
TTP	37	0	1	B	0	L1
TTP	38	0	0	B	0	L1
TTP	39	0	7	B	0	L1
TTP	40	0	6	B	0	L1
TTP	41	0	5	B	0	L1
THO	42	0	0	384	C	1	L1
TAP	44	0	0
TAP	44	192	0
TAP	45	0	0
TAP	46	0	1
TAP	46	192	1
TAP	47	0	1
TAP	48	0	2
TAP	48	192	2
TAP	49	0	2
TAP	50	0	3
TAP	50	192	3
TAP	51	0	3
TAP	51	0	4
TAP	52	0	4
TAP	52	192	4
TAP	53	0	4
TAP	54	0	5
TAP	54	192	5
TAP	55	0	5
TAP	56	0	6
TAP	56	192	6
TAP	57	0	6
TAP	57	0	7
TAP	58	0	0
TAP	58	192	0
XTP	59	0	0
XTP	59	0	7
STR	60	0	0
SI_	60	0	0	96	288	3
STR	62	0	7
SI_	62	0	7	96	288	4
STR	64	0	0
SI_	64	0	0	96	288	3
TAP	66	0	4
TAP	66	192	4
XTP	67	0	3
XTP	67	0	4
HLD	68	0	3	384
HLD	70	0	4	384
TTP	72	0	5	B	0	L1
TTP	73	0	6	B	0	L1
TTP	74	0	7	B	0	L1
TTP	75	0	0	B	0	L1
TTP	76	0	1	B	0	L1
TTP	77	0	2	B	0	L1
THO	78	0	0	384	C	1	L1
TAP	81	0	7
TAP	81	96	7
TAP	81	192	7
TAP	82	0	6
TAP	82	0	7
TAP	83	0	5
TAP	83	96	5
TAP	83	192	5
TAP	84	0	4
TAP	84	0	5
TAP	85	0	3
TAP	85	96	3
TAP	85	192	3
TAP	86	0	4
TAP	86	96	4
TAP	86	192	4
HLD	87	0	3	192
HLD	87	0	4	192
TAP	88	0	3
TAP	88	0	4
BRK	88	192	3
BRK	88	192	4
TAP	89	0	3
TAP	89	96	3
TAP	89	192	3
TAP	90	0	2
TAP	90	0	3
TAP	91	0	1
TAP	91	96	1
TAP	91	192	1
TAP	92	0	0
TAP	92	0	1
TAP	93	0	7
TAP	93	96	7
TAP	93	192	7
TAP	94	0	0
TAP	94	96	0
TAP	94	192	0
HLD	95	0	0	192
HLD	95	0	7	192
TAP	96	0	0
TAP	96	0	7
XTP	96	192	0
XTP	96	192	7
HLD	97	0	1	384
HLD	97	0	6	384
TAP	99	0	1
TAP	99	192	1
TAP	100	0	2
TAP	100	192	2
TAP	101	0	3
TAP	101	192	3
TAP	102	0	3
TAP	102	0	4
TAP	103	0	4
TAP	103	192	4
TAP	104	0	5
TAP	104	192	5
TAP	105	0	6
TAP	105	192	6
XTP	106	0	0
XTP	106	0	7
BRK	107	0	1
BRK	107	0	6

T_REC_TAP	98
T_REC_BRK	6
T_REC_XTP	13
T_REC_HLD	12
T_REC_XHO	0
T_REC_STR	3
T_REC_BST	0
T_REC_XST	0
T_REC_TTP	12
T_REC_THO	2
T_REC_SLD	3
T_REC_ALL	149
T_NUM_TAP	126
T_NUM_BRK	6
T_NUM_HLD	14
T_NUM_SLD	3
T_NUM_ALL	149
T_JUDGE_TAP	132
T_JUDGE_HLD	96
T_JUDGE_SLD	3
T_JUDGE_ALL	231
TTM_EACHPAIRS	21
TTM_SCR_TAP	63000
TTM_SCR_BRK	15600
TTM_SCR_HLD	14000
TTM_SCR_SLD	4500
TTM_SCR_ALL	97100
TTM_SCR_S	93650
TTM_SCR_SS	96500
TTM_RAT_ACV	10062

