VERSION	0.00.00	1.03.00
FES_MODE	0
BPM_DEF	120.000	120.000	120.000	120.000
MET_DEF	4	4
RESOLUTION	384
CLK_DEF	384
COMPATIBLE_CODE	MA2

BPM	0	0	120.000
MET	0	0	4	4

TTP	4	256	3	E	0	M1
TTP	4	272	4	E	0	M1
TTP	4	288	5	E	0	M1
TAP	4	320	0
TAP	4	352	6
STR	5	0	1
SCR	5	0	1	96	96	4
TAP	5	64	1
TAP	5	96	7
STR	5	192	6
SCL	5	192	6	96	96	3
TAP	5	256	6
TAP	5	288	7
STR	6	0	1
SSR	6	0	1	96	96	5
TAP	6	64	1
STR	6	96	5
SSR	6	96	5	96	96	1
TAP	6	192	7
TAP	6	288	4
STR	7	0	5
SI_	7	0	5	96	96	2
TAP	7	64	5
STR	7	96	2
SLR	7	96	2	96	96	6
TAP	7	192	0
TAP	7	288	3
STR	8	0	2
SI_	8	0	2	96	96	5
TAP	8	64	2
STR	8	96	5
SUL	8	96	5	96	144	3
HLD	8	192	7	96
STR	9	0	6
SCL	9	0	6	96	96	3
TAP	9	64	6
TAP	9	96	7
STR	9	192	1
SCR	9	192	1	96	96	4
TAP	9	256	1
TAP	9	288	0
STR	10	0	6
SSL	10	0	6	96	96	2
TAP	10	64	6
STR	10	96	2
SSL	10	96	2	96	96	6
TAP	10	192	0
TAP	10	288	3
STR	11	0	1
SI_	11	0	1	96	96	5
TAP	11	64	1
STR	11	96	5
SXL	11	96	5	96	144	2
TAP	11	192	7
TAP	11	288	4
STR	12	0	6
SLL	12	0	6	96	96	0
TAP	12	64	6
STR	12	96	0
SI_	12	96	0	96	48	3
TAP	12	192	2
TAP	12	352	5
TAP	13	0	4
HLD	13	0	6	160
TAP	13	96	7
TAP	13	160	4
TAP	13	192	3
HLD	13	192	5	160
TAP	13	288	0
TAP	13	352	3
TAP	14	0	2
STR	14	0	4
SCR	14	0	4	96	48	7
TAP	14	96	0
STR	14	96	4
SCL	14	96	4	96	48	1
TAP	14	160	3
TAP	14	192	4
TAP	14	192	7
TAP	14	352	2
HLD	15	0	1	160
TAP	15	0	3
TAP	15	96	0
TAP	15	160	3
HLD	15	192	2	160
TAP	15	192	4
TAP	15	288	7
TAP	15	352	4
STR	16	0	3
SCL	16	0	3	96	48	0
TAP	16	0	5
STR	16	96	3
SCR	16	96	3	96	48	6
TAP	16	96	7
TAP	16	160	4
TAP	16	192	0
TAP	16	192	3
TAP	16	352	5
TAP	17	0	4
HLD	17	0	6	160
TAP	17	96	7
TAP	17	160	4
TAP	17	192	3
HLD	17	192	5	160
TAP	17	288	0
TAP	17	352	3
STR	18	0	2
SI_	18	0	2	96	48	0
TAP	18	0	4
TAP	18	96	5
TAP	18	160	5
TAP	18	192	2
HLD	18	192	6	96
STR	18	288	4
SCL	18	288	4	96	96	0
TAP	18	352	4
TAP	19	0	5
STR	19	96	3
SCR	19	96	3	96	96	7
TAP	19	160	3
TAP	19	192	2
STR	19	288	4
SCL	19	288	4	96	96	0
TAP	19	352	4
TAP	20	0	5
TAP	20	96	4
XTP	20	192	2
XTP	20	192	6
STR	21	0	5
SCL	21	0	5	96	48	3
TTP	21	96	0	E	0	M1
TTP	21	96	7	B	0	M1
STR	21	192	5
SCL	21	192	5	96	48	3
TTP	21	288	0	B	0	M1
TTP	21	288	0	E	0	M1
STR	22	0	6
SCR	22	0	6	96	48	0
TTP	22	96	4	B	0	M1
TTP	22	96	5	E	0	M1
STR	22	192	5
SCL	22	192	5	96	48	3
TTP	22	288	6	B	0	M1
TTP	22	288	6	E	0	M1
STR	23	0	0
SCR	23	0	0	96	96	4
STR	23	96	4
SCR	23	96	4	96	96	0
STR	23	192	0
SCR	23	192	0	96	96	4
STR	23	288	4
SI_	23	288	4	96	96	0
BRK	24	0	0
TAP	24	96	6
TAP	24	160	6
TAP	24	192	4
TAP	24	288	1
TAP	24	288	5
STR	25	0	2
SCR	25	0	2	96	48	4
TTP	25	96	0	B	0	M1
TTP	25	96	0	E	0	M1
STR	25	192	2
SCR	25	192	2	96	48	4
TTP	25	288	0	E	0	M1
TTP	25	288	7	B	0	M1
STR	26	0	1
SCL	26	0	1	96	48	7
TTP	26	96	3	B	0	M1
TTP	26	96	3	E	0	M1
STR	26	192	2
SCR	26	192	2	96	48	4
TTP	26	288	1	B	0	M1
TTP	26	288	2	E	0	M1
STR	27	0	7
SCL	27	0	7	96	96	3
STR	27	96	3
SCL	27	96	3	96	96	7
STR	27	192	7
SLL	27	192	7	96	96	3
STR	27	288	3
SLL	27	288	3	96	96	7
TAP	28	0	7
TAP	28	96	3
BRK	28	192	1
BRK	28	192	5
STR	29	0	0
SI_	29	0	0	96	48	4
STR	29	0	7
SCR	29	0	7	96	48	2
TAP	29	64	6
TAP	29	96	0
TAP	29	96	7
STR	29	192	0
SCL	29	192	0	96	48	5
STR	29	192	7
SI_	29	192	7	96	48	3
TAP	29	256	1
TAP	29	288	0
TAP	29	288	7
STR	30	0	0
SI_	30	0	0	96	48	4
STR	30	0	7
SI_	30	0	7	96	48	2
TAP	30	64	1
TAP	30	64	6
STR	30	96	0
SCR	30	96	0	96	96	6
TAP	30	96	7
TAP	30	192	0
TAP	30	256	7
TAP	30	288	7
STR	31	0	1
SLR	31	0	1	96	48	5
STR	31	0	4
SI_	31	0	4	96	48	7
TAP	31	64	0
TAP	31	96	1
TAP	31	96	4
TAP	31	192	3
STR	31	192	6
SLL	31	192	6	96	48	2
TAP	31	256	7
TAP	31	288	3
TAP	31	288	6
TAP	31	352	1
STR	32	0	0
SI_	32	0	0	96	48	3
TAP	32	64	0
STR	32	96	7
SXR	32	96	7	96	96	7
TAP	32	160	7
TAP	32	192	1
TAP	32	256	0
TAP	32	288	0
STR	33	0	1
SCR	33	0	1	96	48	4
STR	33	0	7
SCL	33	0	7	96	48	4
TAP	33	64	0
TAP	33	96	1
TAP	33	96	7
STR	33	192	0
SCR	33	192	0	96	48	3
STR	33	192	6
SCL	33	192	6	96	48	3
TAP	33	256	7
TAP	33	288	0
TAP	33	288	6
TAP	34	0	0
TAP	34	0	7
TAP	34	64	3
TAP	34	64	4
STR	34	96	1
SI_	34	96	1	96	48	4
STR	34	96	6
SI_	34	96	6	96	48	3
TAP	34	160	0
TAP	34	160	7
TAP	34	192	1
TAP	34	192	6
HLD	34	288	2	96
TAP	34	288	5
TAP	34	352	4
STR	35	0	3
SUL	35	0	3	96	96	6
TAP	35	64	3
TAP	35	96	0
STR	35	192	4
SUR	35	192	4	96	96	1
TAP	35	256	4
TAP	35	288	7
STR	36	0	3
SCR	36	0	3	96	96	2
TAP	36	64	3
TAP	36	96	0
BRK	36	192	4
STR	37	0	0
SCL	37	0	0	96	48	5
STR	37	0	6
SI_	37	0	6	96	48	3
TAP	37	64	1
TAP	37	96	0
TAP	37	96	6
STR	37	192	1
SI_	37	192	1	96	48	4
STR	37	192	7
SCR	37	192	7	96	48	2
TAP	37	256	6
TAP	37	288	1
TAP	37	288	7
STR	38	0	0
SCL	38	0	0	96	48	5
STR	38	0	6
SI_	38	0	6	96	48	3
TAP	38	64	1
STR	38	96	0
SXL	38	96	0	96	96	3
TAP	38	96	6
TAP	38	192	0
TAP	38	256	7
TAP	38	288	7
STR	39	0	3
SI_	39	0	3	96	48	0
STR	39	0	6
SLL	39	0	6	96	48	2
TAP	39	64	7
TAP	39	96	3
TAP	39	96	6
STR	39	192	1
SLR	39	192	1	96	48	5
TAP	39	192	4
TAP	39	256	0
TAP	39	288	1
TAP	39	288	4
TAP	39	352	7
STR	40	0	7
SCL	40	0	7	96	96	2
TAP	40	64	2
STR	40	96	2
SXL	40	96	2	96	96	2
TAP	40	160	1
TAP	40	192	1
TAP	40	256	0
TAP	40	288	0
STR	41	0	1
SCR	41	0	1	96	48	4
STR	41	0	7
SCL	41	0	7	96	48	4
TAP	41	64	0
TAP	41	96	1
TAP	41	96	7
STR	41	192	0
SCR	41	192	0	96	48	3
STR	41	192	6
SCL	41	192	6	96	48	3
TAP	41	256	7
TAP	41	288	0
TAP	41	288	6
TAP	42	0	0
TAP	42	0	7
TAP	42	64	3
TAP	42	64	4
STR	42	96	1
SCR	42	96	1	96	48	3
STR	42	96	6
SCL	42	96	6	96	48	4
TAP	42	160	0
TAP	42	160	7
TAP	42	192	1
TAP	42	192	6
BRK	42	288	0
BRK	42	288	7
STR	43	0	1
SUR	43	0	1	96	48	5
TAP	43	0	5
TAP	43	64	0
TAP	43	96	1
TAP	43	96	7
TAP	43	160	7
TAP	43	192	2
STR	43	192	6
SUL	43	192	6	96	48	2
TAP	43	256	7
TAP	43	288	0
TAP	43	288	6
TAP	43	352	0
STR	44	0	1
SUR	44	0	1	96	48	5
TAP	44	0	5
TAP	44	64	0
TAP	44	96	1
STR	44	96	6
SCR	44	96	6	96	96	4
TTP	44	192	0	C	1	M1
BRK	44	192	6
HLD	45	0	2	64
TAP	45	0	4
TTP	45	64	6	E	0	M1
TTP	45	96	5	E	0	M1
TAP	45	192	3
HLD	45	192	5	64
TTP	45	256	2	E	0	M1
TTP	45	288	3	E	0	M1
HLD	46	0	1	64
TAP	46	0	4
TAP	46	64	5
TAP	46	96	3
HLD	46	96	6	64
TAP	46	160	2
HLD	46	192	1	64
TAP	46	192	4
TAP	46	256	5
TAP	46	288	2
TAP	46	288	6
TAP	47	0	3
HLD	47	0	5	64
TTP	47	64	2	E	0	M1
TTP	47	96	3	E	0	M1
HLD	47	192	2	64
TAP	47	192	4
TTP	47	256	6	E	0	M1
TTP	47	288	5	E	0	M1
TAP	48	0	3
HLD	48	0	6	64
TAP	48	64	2
HLD	48	96	1	64
TAP	48	96	4
TAP	48	160	5
TAP	48	192	3
HLD	48	192	6	64
TAP	48	256	2
TAP	48	288	1
TAP	48	288	5
TAP	49	0	5
TAP	49	32	4
TAP	49	64	3
TAP	49	96	2
TAP	49	192	5
TAP	49	224	4
TAP	49	256	3
HLD	49	288	2	96
HLD	50	0	0	96
HLD	50	96	7	96
HLD	50	192	5	96
TAP	50	288	2
TAP	51	0	5
STR	51	32	4
SCL	51	32	4	96	192	0
STR	51	64	3
SI_	51	64	3	96	160	0
TAP	51	96	2

T_REC_TAP	202
T_REC_BRK	7
T_REC_XTP	2
T_REC_HLD	23
T_REC_XHO	0
T_REC_STR	85
T_REC_BST	0
T_REC_XST	0
T_REC_TTP	28
T_REC_THO	0
T_REC_SLD	85
T_REC_ALL	432
T_NUM_TAP	317
T_NUM_BRK	7
T_NUM_HLD	23
T_NUM_SLD	85
T_NUM_ALL	432
T_JUDGE_TAP	324
T_JUDGE_HLD	58
T_JUDGE_SLD	85
T_JUDGE_ALL	467
TTM_EACHPAIRS	76
TTM_SCR_TAP	158500
TTM_SCR_BRK	18200
TTM_SCR_HLD	23000
TTM_SCR_SLD	127500
TTM_SCR_ALL	327200
TTM_SCR_S	316750
TTM_SCR_SS	326500
TTM_RAT_ACV	10021

