VERSION	0.00.00	1.03.00
FES_MODE	0
BPM_DEF	120.000	120.000	120.000	120.000
MET_DEF	4	4
RESOLUTION	384
CLK_DEF	384
COMPATIBLE_CODE	MA2

BPM	0	0	120.000
MET	0	0	4	4

HLD	5	0	4	96
STR	5	96	1
SCR	5	96	1	96	96	4
HLD	5	192	5	96
HLD	6	0	6	96
HLD	6	96	5	96
HLD	6	192	4	96
TAP	6	288	3
HLD	7	0	2	96
STR	7	96	5
SCL	7	96	5	96	96	2
HLD	7	192	1	192
HLD	8	0	5	96
STR	8	96	2
SCR	8	96	2	96	96	5
HLD	8	192	6	192
HLD	9	0	3	96
STR	9	96	6
SCL	9	96	6	96	96	3
HLD	9	192	2	96
HLD	10	0	1	96
HLD	10	96	2	96
HLD	10	192	3	96
TAP	10	288	4
HLD	11	0	5	96
STR	11	96	2
SCR	11	96	2	96	96	5
HLD	11	192	6	192
HLD	12	0	2	96
STR	12	96	5
SCL	12	96	5	96	96	2
HLD	12	192	1	192
HLD	13	0	4	192
HLD	13	192	5	384
TTP	14	0	7	E	0	M1
TTP	14	96	4	E	0	M1
TTP	14	192	1	E	0	M1
HLD	15	0	3	192
HLD	15	192	2	384
TTP	16	0	1	E	0	M1
TTP	16	96	4	E	0	M1
TTP	16	192	7	E	0	M1
HLD	17	0	3	192
HLD	17	192	5	480
TTP	18	0	7	E	0	M1
TTP	18	96	4	E	0	M1
TTP	18	192	1	E	0	M1
HLD	18	288	2	288
TTP	19	0	0	C	0	M1
HLD	19	192	4	576
TTP	20	0	2	E	0	M1
TTP	20	96	6	E	0	M1
THO	20	192	0	192	C	0	M1
TAP	21	96	0
TAP	21	192	1
TAP	21	288	2
STR	22	0	3
SCL	22	0	3	96	96	0
TAP	22	96	4
TAP	22	192	5
TAP	22	288	6
HLD	23	0	7	192
TTP	23	96	6	E	0	M1
HLD	23	192	0	192
TTP	23	288	2	E	0	M1
STR	24	0	4
SUL	24	0	4	96	192	3
TTP	25	0	0	C	0	M1
TAP	25	96	4
TAP	25	192	5
TAP	25	288	6
STR	26	0	7
SCL	26	0	7	96	96	4
TAP	26	96	0
TAP	26	192	1
HLD	26	288	2	672
TTP	27	0	1	E	0	M1
TTP	27	96	4	E	0	M1
TTP	27	192	7	E	0	M1
TTP	27	288	5	E	0	M1
TTP	28	0	0	E	0	M1
TTP	28	96	3	E	0	M1
TTP	28	192	0	C	1	M1
HLD	29	0	6	64
TAP	29	64	4
HLD	29	96	7	96
HLD	29	192	1	64
TAP	29	256	3
HLD	29	288	0	96
TAP	30	0	6
TAP	30	64	6
TAP	30	96	4
TAP	30	160	4
TAP	30	192	3
TAP	30	256	3
HLD	30	288	1	96
STR	31	0	0
SI_	31	0	0	96	64	4
TAP	31	96	2
STR	31	192	7
SI_	31	192	7	96	64	3
TAP	31	288	5
HLD	32	0	0	64
TAP	32	64	1
TAP	32	96	0
TAP	32	160	0
TAP	32	192	7
TAP	32	256	7
TAP	32	288	6
HLD	33	0	6	64
TAP	33	64	4
HLD	33	96	7	96
HLD	33	192	1	64
TAP	33	256	3
HLD	33	288	0	96
TAP	34	0	7
TAP	34	64	7
TAP	34	96	0
TAP	34	160	0
STR	34	192	7
SCL	34	192	7	96	96	4
TAP	34	288	3
TAP	35	0	1
TAP	35	64	1
TAP	35	96	3
TAP	35	160	3
TAP	35	192	4
TAP	35	256	4
TAP	35	288	6
TAP	35	352	6
TAP	36	0	0
TAP	36	64	0
TAP	36	96	7
TAP	36	160	7
BRK	36	192	0
HLD	37	0	2	64
TAP	37	64	3
HLD	37	96	0	96
HLD	37	192	5	64
TAP	37	256	4
HLD	37	288	7	96
TAP	38	0	1
TAP	38	64	1
TAP	38	96	3
TAP	38	160	3
TAP	38	192	4
TAP	38	256	4
HLD	38	288	6	96
STR	39	0	7
SCR	39	0	7	96	96	3
TAP	39	96	5
STR	39	192	0
SCL	39	192	0	96	96	4
TAP	39	288	2
HLD	40	0	7	64
TAP	40	64	6
TAP	40	96	7
TAP	40	160	7
TAP	40	192	0
TAP	40	256	0
TAP	40	288	1
HLD	41	0	2	64
TAP	41	64	3
HLD	41	96	0	96
HLD	41	192	5	64
TAP	41	256	4
HLD	41	288	7	96
TAP	42	0	1
TAP	42	64	1
TAP	42	96	3
TAP	42	160	3
TAP	42	192	4
TAP	42	256	4
XST	42	288	6
SCR	42	288	6	96	64	1
TAP	43	0	3
STR	43	96	2
SCR	43	96	2	96	64	5
TAP	43	192	7
TAP	43	288	6
STR	44	0	3
SI_	44	0	3	96	64	0
STR	44	0	4
SI_	44	0	4	96	64	7
BRK	44	192	1
BRK	44	192	6
HLD	45	0	2	96
HLD	45	192	3	96
TTP	46	0	5	E	0	M1
TTP	46	96	7	E	0	M1
TTP	46	192	1	E	0	M1
TTP	46	288	3	E	0	M1
TAP	47	0	5
TAP	47	64	5
TAP	47	96	4
TAP	47	160	4
HLD	47	192	5	96
TAP	48	0	2
TAP	48	64	2
TAP	48	96	3
TAP	48	160	3
HLD	48	192	2	96
HLD	49	0	5	96
HLD	49	192	4	96
TTP	50	0	1	E	0	M1
TTP	50	96	3	E	0	M1
TTP	50	192	5	E	0	M1
TTP	50	288	7	E	0	M1
HLD	51	0	0	96
HLD	51	192	7	96

T_REC_TAP	83
T_REC_BRK	3
T_REC_XTP	0
T_REC_HLD	57
T_REC_XHO	0
T_REC_STR	17
T_REC_BST	0
T_REC_XST	1
T_REC_TTP	30
T_REC_THO	1
T_REC_SLD	18
T_REC_ALL	210
T_NUM_TAP	131
T_NUM_BRK	3
T_NUM_HLD	58
T_NUM_SLD	18
T_NUM_ALL	210
T_JUDGE_TAP	134
T_JUDGE_HLD	182
T_JUDGE_SLD	18
T_JUDGE_ALL	334
TTM_EACHPAIRS	2
TTM_SCR_TAP	65500
TTM_SCR_BRK	7800
TTM_SCR_HLD	58000
TTM_SCR_SLD	27000
TTM_SCR_ALL	158300
TTM_SCR_S	153300
TTM_SCR_SS	158000
TTM_RAT_ACV	10018

