VERSION	0.00.00	1.03.00
FES_MODE	0
BPM_DEF	120.000	120.000	120.000	120.000
MET_DEF	4	4
RESOLUTION	384
CLK_DEF	384
COMPATIBLE_CODE	MA2

BPM	0	0	120.000
MET	0	0	4	4

XST	1	0	0
SCR	1	0	0	96	480	5
STR	3	0	7
SCL	3	0	7	96	480	2
XHO	5	0	1	192
HLD	5	192	0	192
HLD	6	0	7	192
TAP	6	192	6
TAP	7	0	5
TAP	7	96	5
TAP	7	192	4
TAP	7	192	5
TAP	8	0	2
TAP	8	96	2
TAP	8	192	2
TAP	8	192	3
HLD	9	0	2	192
HLD	9	192	3	192
HLD	10	0	4	192
TAP	10	192	5
TAP	11	0	6
TAP	11	96	6
TAP	11	192	6
TAP	11	192	7
TAP	12	0	0
TAP	12	0	7
TAP	12	96	0
TAP	12	96	7
XTP	12	192	1
XTP	12	192	6
TAP	13	0	5
TAP	13	96	5
TAP	13	192	4
TAP	13	288	4
TAP	14	0	3
TAP	14	96	3
TAP	14	192	2
TAP	14	192	4
TAP	15	0	1
TAP	15	96	1
TAP	15	192	0
TAP	15	288	0
TAP	16	0	7
TAP	16	96	7
TAP	16	192	0
TAP	16	192	6
TAP	17	0	5
TAP	17	96	5
TAP	17	192	4
TAP	17	288	4
TAP	18	0	3
TAP	18	96	3
TAP	18	192	2
TAP	18	192	4
HLD	19	0	0	96
HLD	19	0	1	96
HLD	19	192	6	96
HLD	19	192	7	96
TAP	20	0	0
TAP	20	0	7
TAP	20	96	0
TAP	20	96	7
TAP	20	192	1
TAP	20	192	6
TTP	21	0	2	E	0	L1
TTP	22	0	2	B	0	L1
TTP	23	0	3	B	0	L1
TTP	24	0	0	C	0	L1
TTP	25	0	6	E	0	L1
TTP	26	0	5	B	0	L1
TTP	27	0	3	B	0	L1
TTP	27	0	4	B	0	L1
TTP	27	192	2	B	0	L1
TTP	27	192	5	B	0	L1
TTP	28	0	0	C	0	L1
TTP	28	0	1	B	0	L1
TTP	28	0	6	B	0	L1
BRK	29	0	1
TAP	29	96	0
TAP	29	96	1
TAP	29	192	6
TAP	29	288	6
TAP	29	288	7
TAP	30	0	5
TAP	30	96	4
TAP	30	192	3
TAP	30	192	5
TAP	31	0	2
TAP	31	0	3
TAP	31	96	2
TAP	31	96	3
TAP	31	192	2
TAP	31	192	3
TAP	32	0	4
TAP	32	0	5
TAP	32	96	4
TAP	32	96	5
TAP	32	192	3
TAP	32	192	6
TAP	33	0	6
TAP	33	96	6
TAP	33	96	7
TAP	33	192	1
TAP	33	288	0
TAP	33	288	1
TAP	34	0	2
TAP	34	96	3
TAP	34	192	2
TAP	34	192	4
TAP	35	0	4
TAP	35	0	5
TAP	35	96	4
TAP	35	96	5
TAP	35	192	4
TAP	35	192	5
TAP	36	0	3
TAP	36	0	4
TAP	36	96	3
TAP	36	96	4
BRK	36	192	2
BRK	36	192	5
TAP	37	0	2
TAP	37	96	2
TAP	37	96	3
TAP	37	192	5
TAP	37	288	4
TAP	37	288	5
TAP	38	0	6
TAP	38	96	7
TAP	38	192	0
TAP	38	192	6
TAP	39	0	0
TAP	39	0	1
TAP	39	96	0
TAP	39	96	1
TAP	39	192	0
TAP	39	192	1
TAP	40	0	6
TAP	40	0	7
TAP	40	96	6
TAP	40	96	7
TAP	40	192	0
TAP	40	192	5
TAP	41	0	6
TAP	41	96	6
TAP	41	96	7
TAP	41	192	1
TAP	41	288	0
TAP	41	288	1
TAP	42	0	2
TAP	42	96	3
TAP	42	192	2
TAP	42	192	4
TAP	43	0	5
TAP	43	96	5
TAP	43	192	6
TAP	43	288	6
TAP	44	0	0
TAP	44	0	7
TAP	44	96	0
TAP	44	96	7
BRK	44	192	1
BRK	44	192	6
STR	45	0	2
SI_	45	0	2	96	192	5
STR	46	0	6
SI_	46	0	6	96	192	3
STR	47	0	2
SI_	47	0	2	96	192	7
STR	48	0	6
SI_	48	0	6	96	192	2
STR	49	0	1
SUR	49	0	1	96	192	5
STR	50	0	6
SUL	50	0	6	96	192	2
STR	51	0	1
SCR	51	0	1	96	192	4

T_REC_TAP	129
T_REC_BRK	5
T_REC_XTP	2
T_REC_HLD	9
T_REC_XHO	1
T_REC_STR	8
T_REC_BST	0
T_REC_XST	1
T_REC_TTP	13
T_REC_THO	0
T_REC_SLD	9
T_REC_ALL	177
T_NUM_TAP	153
T_NUM_BRK	5
T_NUM_HLD	10
T_NUM_SLD	9
T_NUM_ALL	177
T_JUDGE_TAP	158
T_JUDGE_HLD	32
T_JUDGE_SLD	9
T_JUDGE_ALL	199
TTM_EACHPAIRS	47
TTM_SCR_TAP	76500
TTM_SCR_BRK	13000
TTM_SCR_HLD	10000
TTM_SCR_SLD	13500
TTM_SCR_ALL	113000
TTM_SCR_S	109150
TTM_SCR_SS	112500
TTM_RAT_ACV	10044

