VERSION	0.00.00	1.03.00
FES_MODE	0
BPM_DEF	180.000	180.000	180.000	180.000
MET_DEF	4	4
RESOLUTION	384
CLK_DEF	384
COMPATIBLE_CODE	MA2

BPM	0	0	180.000
MET	0	0	4	4
MET	67	0	4	2
MET	67	192	4	4

TAP	8	0	1
TAP	8	48	3
TAP	8	96	2
TAP	8	144	4
TAP	8	192	3
TAP	8	240	4
TAP	8	288	1
TAP	8	336	3
TAP	9	0	2
TAP	9	48	4
TAP	9	96	3
TAP	9	144	4
TAP	9	192	2
TAP	9	240	3
TAP	9	288	1
TAP	9	312	0
TAP	9	336	1
TAP	10	0	6
TAP	10	48	4
TAP	10	96	5
TAP	10	144	3
TAP	10	192	4
TAP	10	240	3
TAP	10	288	6
TAP	10	336	4
TAP	11	0	5
TAP	11	48	3
TAP	11	96	4
TAP	11	144	3
TAP	11	192	1
TAP	11	192	6
TAP	11	240	2
TAP	11	240	5
TAP	11	288	0
TAP	11	312	7
TAP	11	336	0
TAP	12	0	3
TAP	12	0	6
TAP	12	48	4
TAP	12	96	5
TAP	12	144	2
TAP	12	192	3
TAP	12	240	2
TAP	12	288	3
TAP	12	288	6
TAP	12	336	4
TAP	13	0	5
TAP	13	48	2
TAP	13	96	3
TAP	13	144	2
TAP	13	192	5
TAP	13	240	4
TAP	13	288	6
TAP	13	312	7
TAP	13	336	6
TAP	14	0	1
TAP	14	0	4
TAP	14	48	3
TAP	14	96	2
TAP	14	144	5
TAP	14	192	4
TAP	14	240	5
TAP	14	288	1
TAP	14	288	4
TAP	14	336	3
TAP	15	0	2
TAP	15	48	5
TAP	15	96	4
TAP	15	144	5
STR	15	192	3
SSR	15	192	3	96	48	7
STR	15	192	4
SSL	15	192	4	96	48	0
TAP	15	240	2
TAP	15	240	5
TAP	16	0	1
TAP	16	0	6
TAP	16	96	2
HLD	16	144	2	144
HLD	16	288	3	96
TAP	17	0	2
TAP	17	48	3
TAP	17	96	1
TAP	17	144	2
TAP	17	192	0
TAP	17	240	1
TAP	17	288	2
TAP	17	336	3
TAP	18	0	1
TAP	18	0	6
TAP	18	96	5
HLD	18	144	5	96
TAP	18	240	4
TAP	18	288	5
TAP	18	336	6
TAP	19	0	7
TAP	19	48	5
TAP	19	96	6
TAP	19	144	4
TAP	19	192	5
STR	19	240	3
SI_	19	240	3	96	48	5
TAP	19	336	2
HLD	20	0	2	48
TAP	20	48	3
TAP	20	72	2
HLD	20	192	5	48
TAP	20	240	4
TAP	20	264	5
TAP	21	0	2
TAP	21	24	4
TAP	21	48	3
TAP	21	72	5
TAP	21	96	4
TAP	21	144	2
TAP	21	144	6
HLD	21	192	0	48
TAP	21	240	7
TAP	21	264	0
TAP	22	0	1
TAP	22	0	7
TAP	22	48	1
TAP	22	48	7
TAP	22	96	6
TAP	22	144	5
TAP	22	168	3
TAP	22	192	4
TAP	22	216	2
TAP	22	240	3
TAP	22	288	1
TAP	22	288	5
TAP	22	336	7
TAP	23	0	0
TAP	23	0	6
TAP	23	48	0
TAP	23	48	6
TAP	23	96	4
TAP	23	120	3
TAP	23	144	4
TTP	23	192	1	E	0	M1
TTP	23	216	5	E	0	M1
TTP	23	240	2	E	0	M1
TTP	23	264	6	E	0	M1
TTP	23	288	3	E	0	M1
TTP	23	312	7	E	0	M1
TTP	23	336	4	E	0	M1
TTP	23	360	0	E	0	M1
BST	24	0	1
SUR	24	0	1	96	144	4
TAP	24	96	5
HLD	24	144	5	144
TAP	24	288	7
STR	25	0	6
SCL	25	0	6	96	48	3
TAP	25	48	7
TAP	25	96	0
TAP	25	144	1
STR	25	192	2
SCL	25	192	2	96	48	7
TAP	25	240	3
TAP	25	288	4
TAP	25	336	5
STR	26	0	5
SLR	26	0	5	96	96	3
TAP	26	96	2
HLD	26	144	2	96
TAP	26	240	4
TAP	26	288	1
TAP	26	288	5
TAP	26	336	0
TAP	26	336	6
STR	27	0	7
SI_	27	0	7	96	48	5
STR	27	48	0
SI_	27	48	0	96	48	2
STR	27	96	7
SI_	27	96	7	96	48	3
STR	27	144	0
SI_	27	144	0	96	48	4
TAP	27	192	7
TAP	27	240	0
TAP	27	336	2
TAP	27	336	6
TAP	28	0	2
STR	28	0	6
SUL	28	0	6	96	144	3
TAP	28	96	2
HLD	28	144	2	144
TAP	28	288	0
STR	29	0	1
SCR	29	0	1	96	48	4
TAP	29	48	0
TAP	29	96	7
TAP	29	144	6
STR	29	192	5
SCR	29	192	5	96	48	0
TAP	29	240	4
TAP	29	288	3
TAP	29	336	2
STR	30	0	2
SLL	30	0	2	96	96	4
TAP	30	96	5
HLD	30	144	5	96
TAP	30	240	3
TAP	30	288	2
TAP	30	288	6
TAP	30	336	1
TAP	30	336	7
STR	31	0	0
SI_	31	0	0	96	48	2
STR	31	48	7
SI_	31	48	7	96	48	5
STR	31	96	0
SI_	31	96	0	96	48	4
STR	31	144	7
SI_	31	144	7	96	48	3
TAP	31	192	0
TAP	31	240	7
XTP	31	336	1
XTP	31	336	5
STR	32	0	1
SCL	32	0	1	96	72	6
TAP	32	0	5
STR	32	48	7
SCL	32	48	7	96	72	4
STR	32	96	5
SCL	32	96	5	96	72	2
STR	32	144	3
SCL	32	144	3	96	72	0
TAP	32	288	6
TAP	32	312	5
TAP	32	336	4
TAP	32	360	3
TAP	33	0	0
TAP	33	24	1
TAP	33	48	2
TAP	33	72	3
TAP	33	96	0
TAP	33	120	7
TAP	33	144	6
TAP	33	168	5
TAP	33	192	1
TAP	33	216	2
TAP	33	240	3
TAP	33	264	4
TAP	33	288	7
TAP	33	312	6
TAP	33	336	5
TAP	33	360	4
TAP	34	0	3
TAP	34	0	7
STR	34	48	0
SI_	34	48	0	96	48	3
STR	34	48	4
SI_	34	48	4	96	48	7
TAP	34	144	0
TAP	34	144	4
TAP	34	240	6
TAP	34	264	5
TAP	34	288	3
TAP	34	288	4
TAP	34	312	2
TAP	34	336	1
TAP	34	360	0
TAP	35	0	6
TAP	35	24	7
TAP	35	48	5
TAP	35	72	0
TAP	35	96	4
TAP	35	120	1
TAP	35	144	3
TAP	35	168	2
TAP	35	192	4
TAP	35	216	3
TAP	35	240	5
TAP	35	264	4
TAP	35	288	6
TAP	35	312	3
TAP	35	336	7
TAP	35	360	2
STR	36	0	6
SCR	36	0	6	96	72	1
STR	36	48	0
SCR	36	48	0	96	72	3
STR	36	96	2
SCR	36	96	2	96	72	5
STR	36	144	4
SCR	36	144	4	96	72	7
TAP	36	288	1
TAP	36	312	2
TAP	36	336	3
TAP	36	360	4
TAP	37	0	7
TAP	37	24	6
TAP	37	48	5
TAP	37	72	4
TAP	37	96	7
TAP	37	120	0
TAP	37	144	1
TAP	37	168	2
TAP	37	192	6
TAP	37	216	5
TAP	37	240	4
TAP	37	264	3
TAP	37	288	0
TAP	37	312	1
TAP	37	336	2
TAP	37	360	3
TAP	38	0	0
TAP	38	0	4
STR	38	48	3
SI_	38	48	3	96	48	0
STR	38	48	7
SI_	38	48	7	96	48	4
TAP	38	144	3
TAP	38	144	7
TAP	38	240	1
TAP	38	264	2
TAP	38	288	3
TAP	38	288	4
TAP	38	312	5
TAP	38	336	6
TAP	38	360	7
TAP	39	0	1
TAP	39	24	0
TAP	39	48	2
TAP	39	72	7
TAP	39	96	3
TAP	39	120	6
TAP	39	144	4
TAP	39	168	5
TAP	39	192	3
TAP	39	216	4
TAP	39	240	2
TAP	39	264	3
XTP	39	288	1
XTP	39	288	4
TAP	39	304	0
TAP	39	320	7
TAP	39	336	6
TAP	39	352	5
TAP	39	368	4
STR	40	48	6
SI_	40	48	6	96	48	2
STR	40	48	7
SI_	40	48	7	96	48	3
TAP	40	96	0
TAP	40	96	5
TAP	40	144	6
TAP	40	144	7
TAP	40	288	0
TAP	40	288	1
TAP	40	312	7
TAP	40	336	6
TAP	40	360	5
TAP	41	0	3
TAP	41	0	4
TAP	41	24	2
TAP	41	48	1
TAP	41	72	0
TAP	41	96	6
TAP	41	96	7
TAP	41	120	5
TAP	41	144	4
TAP	41	168	3
TAP	41	192	0
TAP	41	216	1
TAP	41	240	2
TAP	41	264	3
TAP	41	288	0
TAP	41	312	7
TAP	41	336	6
TAP	41	360	5
TAP	42	0	0
TAP	42	0	4
STR	42	48	1
SI_	42	48	1	96	48	4
STR	42	48	5
SI_	42	48	5	96	48	0
TAP	42	144	1
TAP	42	144	5
TAP	42	240	2
TAP	42	264	1
TAP	42	288	0
TAP	42	288	7
TAP	42	312	6
TAP	42	336	5
TAP	42	360	4
TAP	43	0	2
TAP	43	24	3
TAP	43	48	1
TAP	43	72	4
TAP	43	96	0
TAP	43	120	5
TAP	43	144	7
TAP	43	168	6
TAP	43	192	0
TAP	43	216	7
TAP	43	240	1
TAP	43	264	0
TAP	43	288	2
TAP	43	288	7
TAP	43	312	3
TAP	43	312	6
TAP	43	336	4
TAP	43	336	5
STR	44	48	0
SI_	44	48	0	96	48	4
STR	44	48	1
SI_	44	48	1	96	48	5
TAP	44	96	2
TAP	44	96	7
TAP	44	144	0
TAP	44	144	1
TAP	44	288	6
TAP	44	288	7
TAP	44	312	0
TAP	44	336	1
TAP	44	360	2
TAP	45	0	3
TAP	45	0	4
TAP	45	24	5
TAP	45	48	6
TAP	45	72	7
TAP	45	96	0
TAP	45	96	1
TAP	45	120	2
TAP	45	144	3
TAP	45	168	4
TAP	45	192	7
TAP	45	216	6
TAP	45	240	5
TAP	45	264	4
TAP	45	288	7
TAP	45	312	0
TAP	45	336	1
TAP	45	360	2
TAP	46	0	3
TAP	46	0	7
STR	46	48	2
SI_	46	48	2	96	48	7
STR	46	48	6
SI_	46	48	6	96	48	3
TAP	46	144	2
TAP	46	144	6
TAP	46	240	5
TAP	46	264	6
TAP	46	288	0
TAP	46	288	7
TAP	46	312	1
TAP	46	336	2
TAP	46	360	3
TAP	47	0	5
TAP	47	24	4
TAP	47	48	6
TAP	47	72	3
TAP	47	96	7
TAP	47	120	2
TAP	47	144	6
TAP	47	168	1
TAP	47	192	5
TAP	47	216	0
TAP	47	240	4
TAP	47	264	7
XTP	47	288	3
TAP	47	300	2
TAP	47	312	1
STR	47	324	0
SI_	47	324	0	96	732	3
STR	47	336	7
SI_	47	336	7	96	720	4
TAP	47	348	6
TAP	47	360	5
TAP	47	372	4
STR	53	288	5
SI_	53	288	5	96	336	2
TTP	54	288	5	E	0	M1
TTP	54	336	4	B	0	M1
TTP	55	96	3	B	0	M1
TTP	55	144	3	E	0	M1
STR	55	288	2
SI_	55	288	2	96	336	5
TTP	56	288	3	E	0	M1
TTP	56	336	3	B	0	M1
TTP	57	96	4	B	0	M1
TTP	57	144	5	E	0	M1
STR	57	288	5
SUL	57	288	5	96	192	2
TAP	58	0	2
TAP	58	0	5
HLD	58	192	1	192
STR	59	0	3
SI_	59	0	3	96	48	5
STR	59	96	1
SI_	59	96	1	96	48	3
TAP	59	192	3
STR	60	0	3
SI_	60	0	3	96	48	5
STR	60	96	1
SI_	60	96	1	96	48	3
HLD	60	192	1	144
STR	60	336	3
SI_	60	336	3	96	48	5
TAP	61	48	1
STR	61	96	1
SI_	61	96	1	96	48	3
TAP	61	192	1
TAP	61	192	3
STR	62	0	2
SI_	62	0	2	96	96	5
TAP	62	0	5
HLD	62	192	6	192
STR	63	0	4
SI_	63	0	4	96	48	2
STR	63	96	6
SI_	63	96	6	96	48	4
TAP	63	192	4
STR	64	0	6
SI_	64	0	6	96	48	4
STR	64	96	1
SI_	64	96	1	96	48	3
TAP	64	96	6
TAP	64	192	1
STR	64	192	4
SI_	64	192	4	96	48	7
TAP	64	288	0
TAP	64	336	0
STR	65	48	1
SI_	65	48	1	96	48	4
STR	65	96	6
SUL	65	96	6	96	192	3
TAP	65	144	1
TAP	65	192	6
STR	67	0	3
SF_	67	0	3	96	48	7
BRK	67	192	1
TAP	67	216	5
TAP	67	240	1
TAP	67	264	5
TAP	67	288	1
TAP	67	336	6
TAP	67	360	7
TAP	68	0	6
TAP	68	24	5
TAP	68	48	6
TAP	68	96	0
TAP	68	120	1
TAP	68	144	2
TAP	68	168	3
TAP	68	192	6
TAP	68	216	5
TAP	68	240	6
TAP	68	264	5
TAP	68	288	6
TAP	68	336	1
TAP	68	360	0
TAP	69	0	1
TAP	69	24	0
TAP	69	48	1
TAP	69	96	5
TAP	69	120	4
TAP	69	144	3
TAP	69	144	6
TAP	69	192	7
TAP	69	216	0
TAP	69	240	7
TAP	69	264	0
TAP	69	288	7
TAP	69	336	2
TAP	69	360	3
TAP	70	0	2
TAP	70	24	1
TAP	70	48	2
TAP	70	96	7
TAP	70	120	6
TAP	70	144	5
TAP	70	168	4
TAP	70	192	1
TAP	70	216	2
TAP	70	240	1
TAP	70	264	2
TAP	70	288	1
TAP	70	336	6
TAP	70	360	7
TAP	71	0	6
TAP	71	24	7
STR	71	48	6
SI_	71	48	6	96	48	3
TAP	71	96	4
TAP	71	144	3
TAP	71	192	1
TAP	71	216	0
TAP	71	240	1
TAP	71	264	0
TAP	71	288	1
TAP	71	336	5
TAP	71	360	4
TAP	72	0	5
TAP	72	24	6
TAP	72	48	5
TAP	72	96	0
TAP	72	120	1
TAP	72	144	2
TAP	72	168	3
TAP	72	192	6
TAP	72	216	5
TAP	72	240	6
TAP	72	264	5
TAP	72	288	6
TAP	72	336	0
TAP	72	360	7
TAP	73	0	0
TAP	73	24	7
TAP	73	48	0
TAP	73	96	2
TAP	73	120	3
TAP	73	144	1
TAP	73	144	4
TAP	73	192	6
TAP	73	216	2
TAP	73	240	6
TAP	73	264	2
TAP	73	288	6
TAP	73	336	1
TAP	73	360	0
TAP	74	0	1
TAP	74	24	2
TAP	74	48	1
TAP	74	96	7
TAP	74	120	6
TAP	74	144	5
TAP	74	168	4
TAP	74	192	1
TAP	74	216	2
TAP	74	240	1
TAP	74	264	2
TAP	74	288	1
TAP	74	336	6
TAP	74	360	7
STR	75	0	0
SI_	75	0	0	96	48	4
TAP	75	24	1
TAP	75	48	2
TAP	75	48	5
BRK	75	96	0
BRK	75	96	7
TAP	75	192	3
TAP	75	192	5
TAP	75	240	2
TAP	75	240	4
TAP	75	288	1
TAP	75	288	3
TAP	75	336	6
TAP	75	360	7
TAP	76	0	6
TAP	76	24	7
TAP	76	48	6
TAP	76	96	0
HLD	76	96	5	72
TAP	76	168	4
TAP	76	192	5
TAP	76	240	4
TAP	76	240	5
TAP	76	288	3
TAP	76	288	6
TAP	76	336	1
TAP	76	360	0
TAP	77	0	1
TAP	77	24	0
STR	77	48	1
SI_	77	48	1	96	48	4
TAP	77	96	3
TAP	77	144	4
TAP	77	192	6
TAP	77	240	6
TAP	77	240	7
TAP	77	288	0
TAP	77	288	7
TAP	77	336	1
TAP	77	360	0
TAP	78	0	1
TAP	78	24	0
TAP	78	48	1
HLD	78	96	2	72
TAP	78	96	7
TAP	78	168	3
TAP	78	192	2
TAP	78	240	2
TAP	78	240	3
TAP	78	288	1
TAP	78	288	4
TAP	78	336	6
TAP	78	360	7
TAP	79	0	6
TAP	79	24	5
TAP	79	48	6
TAP	79	96	0
TAP	79	120	7
TAP	79	144	0
TAP	79	168	7
TAP	79	192	1
TAP	79	192	6
TAP	79	240	2
TAP	79	240	5
TAP	79	288	3
TAP	79	288	4
TAP	79	336	1
TAP	79	360	0
TAP	80	0	1
TAP	80	24	2
TAP	80	48	1
TAP	80	96	3
HLD	80	96	7	72
TAP	80	168	0
TAP	80	192	7
TAP	80	240	0
TAP	80	240	7
TAP	80	288	1
TAP	80	288	6
TAP	80	336	4
TAP	80	360	3
TAP	81	0	4
TAP	81	24	3
TAP	81	48	4
TAP	81	96	1
TAP	81	96	6
TAP	81	144	2
TAP	81	144	5
TAP	81	192	0
TAP	81	216	7
TAP	81	240	1
TAP	81	264	6
TAP	81	288	2
TAP	81	312	5
TAP	81	336	3
TAP	81	360	4
TAP	82	0	3
TAP	82	24	4
TAP	82	48	5
TAP	82	72	6
TAP	82	96	0
TAP	82	96	7
TAP	82	120	1
TAP	82	144	2
TAP	82	168	3
TAP	82	192	4
TAP	82	192	5
TAP	82	216	6
TAP	82	240	7
TAP	82	264	0
TAP	82	288	4
TAP	82	312	3
TAP	82	336	2
TAP	82	360	1
TAP	83	0	0
TAP	83	0	7
TAP	83	24	6
TAP	83	48	5
TAP	83	72	4
TAP	83	96	2
TAP	83	96	3
TAP	83	120	1
TAP	83	144	0
TAP	83	168	7
BST	83	192	5
SCL	83	192	5	96	1008	6
HLD	83	192	6	288
HLD	84	192	7	96
HLD	85	0	0	96
TAP	85	192	2
TAP	85	288	3
HLD	85	336	3	144
HLD	86	192	6	192
TAP	86	240	5
TAP	86	288	4
TAP	86	336	3
HLD	87	0	2	192
TAP	87	48	3
TAP	87	96	4
TAP	87	144	5
STR	87	192	6
SUL	87	192	6	96	288	3
TAP	87	288	0
HLD	87	336	0	144
HLD	88	192	1	192
TAP	88	240	2
TAP	88	288	3
TAP	88	336	4
HLD	89	0	5	192
TAP	89	48	4
TAP	89	96	3
TAP	89	144	2
STR	89	192	1
SCR	89	192	1	96	144	4
HLD	90	0	7	384
TAP	90	96	6
TAP	90	144	5
TAP	90	192	4
TAP	90	240	3
TAP	90	288	2
TAP	90	336	1
TAP	91	0	0
STR	91	48	7
SI_	91	48	7	96	48	3
TAP	91	144	0
TAP	91	144	7
HLD	91	192	2	768
STR	92	0	6
SI_	92	0	6	96	48	1
TAP	92	192	0
STR	92	288	7
SI_	92	288	7	96	48	4
TAP	93	0	7
STR	93	192	3
SI_	93	192	3	96	48	0
STR	93	288	2
SI_	93	288	2	96	48	5
TAP	93	288	3
TAP	94	0	2
HLD	94	0	6	144
TAP	94	144	1
TAP	94	240	3
TAP	94	240	4
STR	94	288	3
SI_	94	288	3	96	48	0
STR	94	288	4
SI_	94	288	4	96	48	7
TAP	94	336	2
TAP	94	336	5
TAP	95	0	3
TAP	95	0	4
TAP	95	192	3
TAP	95	192	5
TAP	95	240	0
TAP	95	264	3
TAP	95	264	5
TAP	96	0	2
TAP	96	0	4
TAP	96	48	7
TAP	96	72	2
TAP	96	72	4
TAP	96	192	5
TAP	96	216	4
TAP	96	240	5
TAP	96	264	4
TAP	96	288	5
TAP	96	336	3
TAP	96	336	6
TAP	97	0	1
TAP	97	0	4
TAP	97	48	0
TAP	97	48	7
TAP	97	72	2
TAP	97	72	5
TAP	97	192	3
TAP	97	192	4
TAP	97	240	3
TAP	97	240	4
TAP	97	288	1
TAP	97	288	6
TAP	97	336	2
TAP	97	360	3
TAP	98	0	2
TAP	98	24	3
TAP	98	48	2
TAP	98	96	1
TAP	98	96	4
TAP	98	144	3
TAP	98	144	6
STR	98	192	1
SCL	98	192	1	96	72	6
STR	98	240	7
SCL	98	240	7	96	72	4
STR	98	288	5
SCL	98	288	5	96	72	2
STR	98	336	3
SCL	98	336	3	96	72	0
THO	99	0	0	96	C	1	M1
BRK	99	192	0
BRK	99	192	7
TAP	99	240	1
TAP	99	240	6
TAP	99	264	2
TAP	99	288	3
TAP	99	312	4
TAP	99	336	5
TAP	99	360	6
TAP	100	0	7
TAP	100	24	0
TAP	100	48	1
TAP	100	72	2
TAP	100	96	3
TAP	100	96	4
TAP	100	120	5
TAP	100	144	6
TAP	100	168	7
TAP	100	192	0
STR	100	192	1
SI_	100	192	1	96	48	5
TAP	100	288	1
TAP	100	288	5
STR	100	336	7
SLL	100	336	7	96	96	1
TAP	101	48	2
TAP	101	48	7
HLD	101	96	0	96
STR	101	192	3
SSR	101	192	3	96	72	7
TAP	101	288	3
TAP	101	288	7
STR	101	336	1
SI_	101	336	1	96	48	5
TAP	102	48	1
TAP	102	48	6
TAP	102	96	0
TAP	102	120	7
TAP	102	144	6
TAP	102	168	5
TAP	102	192	1
TAP	102	192	4
TAP	102	216	2
TAP	102	240	3
TAP	102	264	4
TAP	102	288	5
TAP	102	312	6
TAP	102	336	7
TAP	102	360	0
TAP	103	0	1
TAP	103	0	6
TAP	103	24	5
TAP	103	48	4
TAP	103	72	3
TAP	103	96	2
TAP	103	120	1
TAP	103	144	0
TAP	103	168	7
TAP	103	192	3
STR	103	192	6
SI_	103	192	6	96	48	3
STR	103	240	2
SI_	103	240	2	96	48	7
TAP	103	288	6
TAP	103	336	2
TAP	104	0	6
TAP	104	24	5
TAP	104	48	4
TAP	104	72	3
TAP	104	96	0
TAP	104	120	1
TAP	104	144	2
TAP	104	168	3
TAP	104	192	0
STR	104	192	4
SLL	104	192	4	96	72	0
TAP	104	288	4
TAP	104	288	5
STR	104	336	6
SLL	104	336	6	96	96	0
TAP	105	48	6
TAP	105	48	7
HLD	105	96	1	96
STR	105	192	3
SLR	105	192	3	96	72	7
TAP	105	288	2
TAP	105	288	3
STR	105	336	1
SLR	105	336	1	96	96	7
TAP	106	48	0
TAP	106	48	1
HLD	106	96	6	96
TAP	106	192	7
TAP	106	224	6
TAP	106	256	3
TAP	106	288	4
TAP	106	320	1
TAP	106	352	0
STR	107	0	3
SCL	107	0	3	96	48	0
STR	107	0	7
SCL	107	0	7	96	48	4
BRK	107	96	3
BRK	107	96	7
STR	107	192	2
SI_	107	192	2	96	48	7
TAP	107	192	6
TAP	107	240	3
TAP	107	288	4
TAP	107	336	5
STR	108	0	2
SI_	108	0	2	96	48	7
TAP	108	0	6
TAP	108	48	3
TAP	108	96	4
TAP	108	144	5
STR	108	192	2
SCL	108	192	2	96	48	7
TAP	108	192	6
TAP	108	240	3
TAP	108	288	4
STR	108	336	5
SCL	108	336	5	96	48	2
TAP	109	0	6
TAP	109	48	7
TAP	109	96	0
TAP	109	192	1
STR	109	192	5
SI_	109	192	5	96	48	0
TAP	109	240	4
TAP	109	288	3
TAP	109	336	2
TAP	110	0	1
STR	110	0	5
SI_	110	0	5	96	48	0
TAP	110	48	4
TAP	110	96	3
TAP	110	144	2
TAP	110	192	1
STR	110	192	5
SCR	110	192	5	96	48	0
TAP	110	240	4
TAP	110	288	3
STR	110	336	2
SCR	110	336	2	96	48	5
TAP	111	0	1
TAP	111	48	0
STR	111	96	7
SF_	111	96	7	96	48	3
TAP	111	192	7
STR	111	288	1
SUR	111	288	1	96	48	5
STR	111	288	5
SUR	111	288	5	96	48	1
STR	112	0	1
SCL	112	0	1	96	48	6
STR	112	0	5
SCL	112	0	5	96	48	2
STR	112	192	1
SLR	112	192	1	96	96	7
TAP	112	192	6
TAP	112	288	1
TAP	112	288	3
STR	112	336	6
SLL	112	336	6	96	96	0
TAP	113	48	4
TAP	113	48	6
HLD	113	96	1	96
TAP	113	192	0
TAP	113	216	7
TAP	113	240	6
TAP	113	264	5
TAP	113	288	3
TAP	113	288	4
TAP	113	312	2
TAP	113	336	1
TAP	113	360	0
TAP	114	0	3
TAP	114	24	4
TAP	114	48	5
TAP	114	72	6
TAP	114	96	0
TAP	114	96	7
TAP	114	120	1
TAP	114	144	2
TAP	114	168	3
TAP	114	192	4
TAP	114	216	0
TAP	114	240	3
TAP	114	264	7
TAP	114	288	2
TAP	114	312	6
TAP	114	336	1
TAP	114	360	5
TAP	115	0	0
TAP	115	24	4
TAP	115	48	7
TAP	115	72	3
XST	115	96	0
SCR	115	96	0	96	60	5
XST	115	96	4
SCR	115	96	4	96	60	1
XST	115	108	1
SCR	115	108	1	96	60	6
XST	115	108	5
SCR	115	108	5	96	60	2
XST	115	120	2
SCR	115	120	2	96	60	7
XST	115	120	6
SCR	115	120	6	96	60	3
XST	115	132	3
SCR	115	132	3	96	60	0
XST	115	132	7
SCR	115	132	7	96	60	4
BST	115	192	0
SUL	115	192	0	96	1344	6
BST	115	192	4
SUL	115	192	4	96	1344	2
STR	119	192	2
SI_	119	192	2	96	576	5
STR	119	192	6
SI_	119	192	6	96	576	1
TTP	121	192	2	E	0	M1
TTP	121	240	6	E	0	M1
TTP	121	288	1	B	0	M1
TTP	121	336	6	B	0	M1
TTP	122	0	0	B	0	M1
TTP	122	48	7	B	0	M1
TTP	122	112	0	E	0	M1
BST	122	192	1
SI_	122	192	1	96	1296	5
BST	122	192	6
SI_	122	192	6	96	1296	2

T_REC_TAP	809
T_REC_BRK	7
T_REC_XTP	5
T_REC_HLD	32
T_REC_XHO	0
T_REC_STR	103
T_REC_BST	6
T_REC_XST	8
T_REC_TTP	23
T_REC_THO	1
T_REC_SLD	117
T_REC_ALL	1111
T_NUM_TAP	948
T_NUM_BRK	13
T_NUM_HLD	33
T_NUM_SLD	117
T_NUM_ALL	1111
T_JUDGE_TAP	961
T_JUDGE_HLD	106
T_JUDGE_SLD	117
T_JUDGE_ALL	1184
TTM_EACHPAIRS	147
TTM_SCR_TAP	474000
TTM_SCR_BRK	33800
TTM_SCR_HLD	33000
TTM_SCR_SLD	175500
TTM_SCR_ALL	716300
TTM_SCR_S	693550
TTM_SCR_SS	715000
TTM_RAT_ACV	10018

