VERSION	0.00.00	1.03.00
FES_MODE	0
BPM_DEF	180.000	180.000	180.000	180.000
MET_DEF	4	4
RESOLUTION	384
CLK_DEF	384
COMPATIBLE_CODE	MA2

BPM	0	0	180.000
MET	0	0	4	4
MET	66	0	4	4
MET	67	0	4	2
MET	67	192	4	4

HLD	8	0	2	144
HLD	8	144	3	144
HLD	8	288	4	144
HLD	9	48	5	144
TAP	9	192	4
TAP	9	288	3
TAP	9	288	4
HLD	10	0	2	144
HLD	10	144	3	144
HLD	10	288	4	144
HLD	11	48	5	144
TAP	11	192	4
TAP	11	240	5
TAP	11	288	3
TAP	11	288	4
HLD	12	0	5	144
HLD	12	144	4	144
HLD	12	288	3	144
HLD	13	48	2	144
TAP	13	192	3
TAP	13	288	3
TAP	13	288	4
HLD	14	0	5	144
HLD	14	144	4	144
HLD	14	288	3	144
HLD	15	48	2	144
TAP	15	192	3
TAP	15	240	2
XTP	15	288	1
XTP	15	288	6
TAP	16	0	0
TAP	16	96	7
STR	16	144	7
SCL	16	144	7	96	96	4
TAP	16	288	2
TAP	17	0	3
TAP	17	96	2
TAP	17	96	4
TAP	17	192	5
TAP	17	288	4
TAP	17	288	6
TAP	18	0	7
TAP	18	96	0
STR	18	144	0
SCR	18	144	0	96	96	3
TAP	18	288	5
TAP	19	0	4
TAP	19	96	3
TAP	19	96	5
TAP	19	192	2
TAP	19	240	2
TAP	19	336	1
TAP	19	336	3
XTP	20	0	1
XHO	20	0	3	72
XTP	20	72	2
XHO	20	192	4	72
XTP	20	192	6
XTP	20	264	5
TAP	21	0	2
TAP	21	48	2
TAP	21	96	3
XHO	21	192	0	72
XTP	21	264	7
TAP	22	0	5
TAP	22	48	5
TAP	22	96	4
TAP	22	192	2
TAP	22	192	3
TAP	22	288	6
TAP	22	336	6
TAP	23	0	1
TAP	23	48	1
TAP	23	96	7
TAP	23	144	7
STR	23	192	0
SI_	23	192	0	96	48	4
BRK	23	288	7
HLD	24	0	6	96
TAP	24	96	5
HLD	24	144	5	96
TAP	24	240	4
HLD	24	288	4	96
TAP	25	0	3
TAP	25	48	3
TAP	25	96	5
TAP	25	144	5
TAP	25	192	1
TAP	25	240	1
TAP	25	288	7
TAP	25	336	7
HLD	26	0	0	96
TAP	26	96	1
HLD	26	144	1	96
TAP	26	240	2
HLD	26	288	2	96
TAP	27	0	3
TAP	27	48	2
TAP	27	96	3
TAP	27	144	1
TAP	27	192	3
HLD	27	240	0	96
TAP	27	336	7
HLD	28	0	1	96
TAP	28	96	2
HLD	28	144	2	96
TAP	28	240	3
HLD	28	288	3	96
TAP	29	0	4
TAP	29	48	4
TAP	29	96	2
TAP	29	144	2
TAP	29	192	6
TAP	29	240	6
TAP	29	288	0
TAP	29	336	0
HLD	30	0	7	96
TAP	30	96	6
HLD	30	144	6	96
TAP	30	240	5
HLD	30	288	5	96
TAP	31	0	4
TAP	31	48	5
TAP	31	96	4
TAP	31	144	6
TAP	31	192	4
HLD	31	240	7	96
XTP	31	336	0
TAP	32	0	0
TAP	32	0	7
TAP	32	48	1
TAP	32	48	6
TAP	32	96	2
TAP	32	96	5
TAP	32	144	3
TAP	32	144	4
STR	32	288	2
SCL	32	288	2	96	96	7
TAP	32	288	6
TAP	33	0	4
STR	33	96	6
SCL	33	96	6	96	96	3
TAP	33	192	0
TAP	33	288	2
TAP	34	0	0
TAP	34	0	7
STR	34	48	0
SCR	34	48	0	96	96	3
STR	34	48	7
SCL	34	48	7	96	96	4
STR	35	0	2
SI_	35	0	2	96	48	4
TAP	35	96	5
STR	35	192	6
SI_	35	192	6	96	48	0
TAP	35	288	1
TAP	36	0	3
STR	36	48	3
SCL	36	48	3	96	144	6
TAP	36	96	4
TAP	36	144	4
STR	37	0	5
SI_	37	0	5	96	48	3
STR	37	96	1
SI_	37	96	1	96	48	5
STR	37	192	7
SI_	37	192	7	96	48	1
TAP	38	0	3
TAP	38	0	4
STR	38	48	3
SCL	38	48	3	96	96	0
STR	38	48	4
SCR	38	48	4	96	96	7
STR	39	0	5
SI_	39	0	5	96	48	7
TAP	39	96	4
STR	39	192	1
SI_	39	192	1	96	48	3
TAP	39	288	0
TAP	40	0	7
STR	40	48	7
SCL	40	48	7	96	144	2
TAP	40	96	0
TAP	40	144	0
TTP	41	0	1	E	0	M1
TTP	41	48	7	E	0	M1
TTP	41	96	2	E	0	M1
TTP	41	144	6	E	0	M1
TTP	41	192	3	E	0	M1
TTP	41	240	5	E	0	M1
TTP	41	288	0	C	0	M1
TAP	42	0	0
TAP	42	0	7
STR	42	48	0
SCR	42	48	0	96	96	3
STR	42	48	7
SCL	42	48	7	96	96	4
TAP	43	0	1
TAP	43	48	1
TAP	43	96	4
TAP	43	144	4
TAP	43	192	3
TAP	43	240	3
TAP	43	288	6
TAP	43	336	6
STR	44	48	5
SCR	44	48	5	96	144	2
TAP	44	96	4
TAP	44	144	3
TTP	45	0	3	E	0	M1
TTP	45	48	5	E	0	M1
TTP	45	96	2	E	0	M1
TTP	45	144	6	E	0	M1
TTP	45	192	1	E	0	M1
TTP	45	240	7	E	0	M1
TTP	45	288	0	C	0	M1
TAP	46	0	3
TAP	46	0	7
STR	46	48	3
SCL	46	48	3	96	96	0
STR	46	48	7
SCL	46	48	7	96	96	4
TAP	47	0	0
TAP	47	48	1
TAP	47	96	2
TAP	47	144	3
TAP	47	192	4
TAP	47	240	5
TAP	47	288	6
TAP	47	336	7
TTP	50	0	2	B	0	M1
TTP	50	144	3	B	0	M1
TTP	50	288	4	B	0	M1
TTP	51	48	5	B	0	M1
TTP	51	192	4	E	0	M1
TTP	51	288	0	C	0	M1
TTP	52	0	5	B	0	M1
TTP	52	144	4	B	0	M1
TTP	52	288	3	B	0	M1
TTP	53	48	2	B	0	M1
TTP	53	192	4	E	0	M1
TTP	53	288	0	C	0	M1
TTP	54	0	2	E	0	M1
TTP	54	144	3	B	0	M1
TTP	54	288	4	B	0	M1
TTP	55	48	6	E	0	M1
TTP	55	192	0	E	0	M1
TTP	55	288	0	C	0	M1
TTP	56	0	6	E	0	M1
TTP	56	144	4	B	0	M1
TTP	56	288	3	B	0	M1
TTP	57	48	2	E	0	M1
TTP	57	192	0	E	0	M1
TTP	57	288	0	C	0	M1
HLD	58	0	2	96
TAP	58	96	3
TAP	58	192	1
TAP	58	192	4
TAP	58	288	2
HLD	59	0	3	96
TAP	59	96	4
TAP	59	192	2
TAP	59	192	5
HLD	60	0	5	96
TAP	60	96	4
TAP	60	192	3
TAP	60	192	6
TAP	60	288	5
TAP	61	0	4
TAP	61	96	3
TAP	61	96	5
TAP	61	192	2
TAP	61	192	4
HLD	62	0	5	96
TAP	62	96	4
TAP	62	192	3
TAP	62	192	6
TAP	62	288	5
HLD	63	0	4	96
TAP	63	96	3
TAP	63	192	2
TAP	63	192	5
TAP	64	0	2
TAP	64	0	3
TAP	64	96	1
TAP	64	96	4
TAP	64	192	1
TAP	64	192	4
TAP	64	288	2
TAP	65	0	3
STR	65	96	4
SUL	65	96	4	96	192	3
THO	67	0	0	192	C	1	M1
STR	68	192	1
SI_	68	192	1	96	96	4
TAP	68	192	6
TAP	68	288	5
TAP	68	336	5
TAP	69	48	3
TAP	69	48	7
TAP	69	96	3
TAP	69	96	7
TAP	69	192	1
STR	69	192	6
SI_	69	192	6	96	96	3
TAP	69	288	2
TAP	69	336	2
TAP	70	48	0
TAP	70	48	4
TAP	70	96	0
TAP	70	96	4
TAP	70	192	2
TAP	70	192	7
STR	70	288	4
SI_	70	288	4	96	96	1
STR	70	288	5
SI_	70	288	5	96	96	0
STR	71	192	2
SI_	71	192	2	96	96	7
TAP	71	192	6
TAP	71	288	5
TAP	71	336	5
TAP	72	48	0
TAP	72	48	4
TAP	72	96	0
TAP	72	96	4
STR	72	192	1
SI_	72	192	1	96	96	4
TAP	72	192	7
TAP	72	288	5
TAP	72	336	5
TAP	73	48	3
TAP	73	48	7
TAP	73	96	3
TAP	73	96	7
TAP	73	192	0
STR	73	192	6
SI_	73	192	6	96	96	3
TAP	73	288	2
TAP	73	336	2
TAP	74	48	0
TAP	74	48	4
TAP	74	96	0
TAP	74	96	4
STR	74	192	2
SI_	74	192	2	96	48	4
TAP	74	192	7
STR	74	288	6
SI_	74	288	6	96	48	0
STR	75	0	1
SI_	75	0	1	96	48	5
BRK	75	192	2
BRK	75	192	6
TAP	75	288	0
TAP	75	288	4
TAP	75	336	0
TAP	75	336	4
TAP	76	48	3
TAP	76	48	7
TAP	76	96	3
TAP	76	96	7
TAP	76	192	0
STR	76	192	6
SI_	76	192	6	96	96	3
TAP	76	288	2
TAP	76	336	2
TAP	77	48	0
TAP	77	48	4
TAP	77	96	0
TAP	77	96	4
STR	77	192	1
SI_	77	192	1	96	96	4
TAP	77	192	7
TAP	77	288	5
TAP	77	336	5
TAP	78	48	3
TAP	78	48	7
TAP	78	96	3
TAP	78	96	7
TAP	78	192	0
TAP	78	192	5
STR	78	288	2
SI_	78	288	2	96	96	7
STR	78	288	3
SI_	78	288	3	96	96	6
TAP	79	192	1
STR	79	192	5
SI_	79	192	5	96	96	0
TAP	79	288	2
TAP	79	336	2
TAP	80	48	3
TAP	80	48	7
TAP	80	96	3
TAP	80	96	7
STR	80	192	2
SI_	80	192	2	96	96	7
TAP	80	192	6
TAP	80	288	5
TAP	80	336	5
TAP	81	48	0
TAP	81	48	4
TAP	81	96	0
TAP	81	96	4
TAP	81	192	1
TAP	81	192	6
TAP	81	288	3
TAP	81	288	4
STR	81	336	3
SXR	81	336	3	96	432	0
STR	81	336	4
SXL	81	336	4	96	432	7
BRK	83	192	1
BRK	83	192	6
HLD	85	192	1	384
HLD	86	192	3	192
HLD	87	0	4	192
HLD	87	192	6	384
HLD	88	192	4	192
HLD	89	0	3	192
HLD	89	192	1	192
STR	90	0	2
SCL	90	0	2	96	384	5
TAP	91	192	3
TAP	91	288	4
TAP	92	0	1
TAP	92	0	3
TAP	92	96	2
TAP	92	144	4
TAP	92	192	3
TAP	92	240	5
TAP	92	288	4
TAP	93	0	4
TAP	93	0	6
TAP	93	192	4
TAP	93	288	3
TAP	94	0	4
TAP	94	0	6
TAP	94	96	5
TAP	94	144	3
TAP	94	192	4
TAP	94	240	2
TAP	94	288	3
TAP	95	0	1
TAP	95	0	3
XHO	95	192	2	72
XTP	95	264	3
XHO	96	0	5	72
XTP	96	72	4
XTP	96	192	3
XTP	96	216	4
XTP	96	240	3
XTP	96	264	4
XTP	96	288	3
XHO	97	0	3	72
XTP	97	72	4
TAP	97	192	2
TAP	97	240	2
TAP	97	288	3
TAP	97	336	5
TAP	98	0	5
TAP	98	48	4
TAP	98	96	3
TAP	98	144	3
TAP	98	192	5
TAP	98	240	5
TAP	98	288	1
TAP	98	336	1
STR	99	0	7
SI_	99	0	7	96	48	3
BRK	99	192	1
BRK	99	192	5
TAP	99	288	3
TAP	99	288	7
TAP	99	336	6
TAP	100	0	5
TAP	100	48	4
TAP	100	96	3
TAP	100	144	2
STR	100	192	1
SI_	100	192	1	96	96	4
TAP	100	192	6
TAP	100	288	5
TAP	100	336	5
TAP	101	48	3
TAP	101	48	7
TAP	101	96	3
TAP	101	96	7
TAP	101	192	1
STR	101	192	6
SI_	101	192	6	96	96	3
TAP	101	288	2
TAP	101	336	2
TAP	102	48	0
TAP	102	48	4
TAP	102	96	0
TAP	102	96	4
TAP	102	192	2
TAP	102	192	6
TAP	102	240	3
TAP	102	288	4
TAP	102	336	5
HLD	103	0	6	192
TAP	103	48	7
TAP	103	96	0
TAP	103	144	1
STR	103	192	2
SI_	103	192	2	96	96	7
TAP	103	288	5
TAP	103	336	5
TAP	104	48	0
TAP	104	48	4
TAP	104	96	0
TAP	104	96	4
TAP	104	192	1
STR	104	192	5
SI_	104	192	5	96	96	0
TAP	104	288	2
TAP	104	336	2
TAP	105	48	3
TAP	105	48	7
TAP	105	96	3
TAP	105	96	7
TAP	105	192	2
STR	105	192	6
SI_	105	192	6	96	96	2
TAP	105	288	1
TAP	105	336	1
TAP	106	48	0
TAP	106	48	4
STR	106	96	0
SLR	106	96	0	96	144	4
STR	106	96	4
SLR	106	96	4	96	144	0
BRK	107	0	2
BRK	107	0	6
STR	107	192	1
SCL	107	192	1	96	96	6
TAP	107	192	5
TAP	107	288	4
STR	108	0	5
SI_	108	0	5	96	96	1
TAP	108	96	3
STR	108	192	2
SCR	108	192	2	96	96	5
TAP	108	288	6
TAP	108	336	6
TAP	109	48	0
TAP	109	48	7
TAP	109	96	0
TAP	109	96	7
TAP	109	192	2
STR	109	192	6
SCR	109	192	6	96	96	1
TAP	109	288	3
STR	110	0	2
SI_	110	0	2	96	96	6
TAP	110	96	4
STR	110	192	5
SCL	110	192	5	96	96	2
TAP	110	288	1
TAP	110	336	1
TAP	111	48	0
TAP	111	48	7
TAP	111	96	0
TAP	111	96	7
STR	111	192	1
SI_	111	192	1	96	48	3
TAP	111	192	5
TAP	111	288	6
TAP	112	0	2
STR	112	0	7
SI_	112	0	7	96	48	5
TAP	112	96	1
STR	112	192	0
SI_	112	192	0	96	96	4
TAP	112	192	4
TAP	112	288	7
TAP	112	336	7
TAP	113	48	1
TAP	113	48	6
TAP	113	96	1
TAP	113	96	6
TAP	113	192	3
TAP	113	192	4
TAP	113	288	0
TAP	113	288	7
TAP	113	336	0
STR	113	336	7
SCL	113	336	7	96	528	0
THO	114	96	0	480	C	1	M1
HLD	116	192	1	384
HLD	117	192	0	384
HLD	118	192	7	384
HLD	119	192	6	384
STR	120	192	5
SI_	120	192	5	96	288	2
XHO	122	192	3	1344
XHO	122	192	4	1344

T_REC_TAP	354
T_REC_BRK	9
T_REC_XTP	16
T_REC_HLD	47
T_REC_XHO	8
T_REC_STR	62
T_REC_BST	0
T_REC_XST	0
T_REC_TTP	38
T_REC_THO	2
T_REC_SLD	62
T_REC_ALL	598
T_NUM_TAP	470
T_NUM_BRK	9
T_NUM_HLD	57
T_NUM_SLD	62
T_NUM_ALL	598
T_JUDGE_TAP	479
T_JUDGE_HLD	240
T_JUDGE_SLD	62
T_JUDGE_ALL	781
TTM_EACHPAIRS	112
TTM_SCR_TAP	235000
TTM_SCR_BRK	23400
TTM_SCR_HLD	57000
TTM_SCR_SLD	93000
TTM_SCR_ALL	408400
TTM_SCR_S	395300
TTM_SCR_SS	407500
TTM_RAT_ACV	10022

