VERSION	0.00.00	1.03.00
FES_MODE	0
BPM_DEF	180.000	180.000	180.000	180.000
MET_DEF	4	4
RESOLUTION	384
CLK_DEF	384
COMPATIBLE_CODE	MA2

BPM	0	0	180.000
MET	0	0	4	4

TTP	8	0	5	B	0	L1
TTP	8	192	4	B	0	L1
TTP	9	0	3	B	0	L1
TTP	10	0	2	B	0	L1
TTP	10	192	3	B	0	L1
TTP	11	0	4	B	0	L1
TTP	12	0	6	E	0	L1
TTP	12	192	5	B	0	L1
TTP	13	0	4	B	0	L1
TTP	13	192	4	E	0	L1
TTP	14	0	3	B	0	L1
TTP	14	192	2	B	0	L1
TTP	15	0	2	E	0	L1
TTP	16	0	2	B	0	L1
TTP	16	0	3	B	0	L1
TTP	17	0	4	B	0	L1
TTP	17	0	5	B	0	L1
TTP	18	0	1	B	0	L1
TTP	18	0	2	B	0	L1
TTP	19	0	5	B	0	L1
TTP	19	0	6	B	0	L1
THO	20	0	0	384	C	0	L1
HLD	22	0	0	384
TAP	23	0	7
TAP	23	96	7
TAP	23	192	1
TAP	23	192	6
HLD	24	0	1	192
HLD	24	192	2	192
TAP	25	0	3
TAP	25	192	3
TAP	25	192	4
HLD	26	0	6	192
HLD	26	192	5	192
TAP	27	0	4
TAP	27	192	3
TAP	27	192	6
HLD	28	0	5	192
HLD	28	192	6	192
TAP	29	0	7
TAP	29	192	0
TAP	29	192	7
HLD	30	0	2	192
HLD	30	192	1	192
TAP	31	0	0
TAP	31	192	2
TAP	31	192	7
TAP	32	0	2
TAP	32	96	2
TAP	32	192	2
TAP	32	192	3
TAP	33	0	5
TAP	33	96	5
TAP	33	192	4
TAP	33	192	5
TAP	34	0	2
TAP	34	96	2
TAP	34	192	3
TAP	34	288	3
TAP	35	0	2
TAP	35	192	1
TAP	35	192	4
TAP	36	0	1
TAP	36	96	1
TAP	36	192	0
TAP	36	192	1
TAP	37	0	6
TAP	37	96	6
TAP	37	192	6
TAP	37	192	7
TAP	38	0	0
TAP	38	96	0
TAP	38	192	7
TAP	38	288	7
TAP	39	0	0
TAP	39	192	1
TAP	39	192	6
TAP	40	0	2
TAP	40	96	2
TAP	40	192	3
TAP	40	288	3
TAP	41	0	3
TAP	41	0	4
TAP	41	192	2
TAP	41	192	5
TAP	42	0	6
TAP	42	96	6
TAP	42	192	7
TAP	42	288	7
TAP	43	0	0
TAP	43	0	7
TAP	43	192	1
TAP	43	192	6
TAP	44	0	2
TAP	44	96	2
TAP	44	192	1
TAP	44	192	3
TAP	45	0	5
TAP	45	96	5
TAP	45	192	4
TAP	45	192	6
STR	46	0	3
SI_	46	0	3	96	288	0
STR	46	0	4
SI_	46	0	4	96	288	7
TAP	47	192	1
TAP	47	192	6
STR	50	0	1
SI_	50	0	1	96	480	5
STR	52	0	6
SI_	52	0	6	96	480	2
STR	54	0	1
SI_	54	0	1	96	480	4
STR	56	0	6
SI_	56	0	6	96	480	3
HLD	58	0	2	192
HLD	58	192	3	192
TAP	59	0	2
TAP	59	192	1
TAP	59	192	4
HLD	60	0	5	192
HLD	60	192	4	192
TAP	61	0	5
TAP	61	192	3
TAP	61	192	6
HLD	62	0	1	192
HLD	62	192	3	192
TAP	63	0	2
TAP	63	192	1
TAP	63	192	4
HLD	64	0	5	192
HLD	64	192	4	192
TAP	65	0	6
TAP	65	192	6
TAP	65	192	7
BRK	66	0	0
HLD	67	0	0	96
HLD	67	0	7	96
BRK	67	192	1
BRK	67	192	6
TAP	68	0	2
TAP	68	96	3
TAP	68	192	4
TAP	68	192	5
TAP	68	288	4
TAP	68	288	5
TAP	69	0	3
TAP	69	0	6
TAP	69	96	3
TAP	69	96	6
TAP	69	192	2
TAP	69	192	5
TAP	69	288	2
TAP	69	288	5
TAP	70	0	1
TAP	70	0	4
TAP	70	96	1
TAP	70	96	4
TAP	70	192	2
TAP	70	192	3
TAP	70	288	1
TAP	70	288	4
TAP	71	0	0
TAP	71	0	5
STR	71	192	7
SCL	71	192	7	96	192	4
STR	72	192	3
SCL	72	192	3	96	192	0
HLD	73	192	7	192
HLD	74	0	0	192
TAP	74	192	7
TAP	74	288	0
TAP	74	288	7
TAP	75	0	1
TAP	75	0	6
BRK	75	192	4
BRK	75	192	5
TAP	75	288	3
TAP	75	288	6
TAP	76	0	2
TAP	76	0	3
TAP	76	96	1
TAP	76	96	4
TAP	76	192	5
TAP	76	288	6
TAP	77	0	6
TAP	77	0	7
TAP	77	96	6
TAP	77	96	7
TAP	77	192	0
TAP	77	192	1
TAP	77	288	2
TAP	77	288	7
TAP	78	0	6
TAP	78	0	7
TAP	78	96	0
TAP	78	96	5
TAP	78	192	1
TAP	78	288	2
TAP	79	0	2
TAP	79	0	7
STR	79	192	3
SCL	79	192	3	96	192	0
STR	80	192	7
SCL	80	192	7	96	192	4
HLD	81	192	3	192
HLD	82	0	4	192
TAP	82	192	3
TAP	82	288	2
TAP	82	288	5
TAP	83	0	1
TAP	83	0	6
TTP	83	192	0	C	1	L1
TTP	83	192	2	B	0	L1
TTP	83	192	5	B	0	L1
HLD	85	192	0	768
HLD	87	192	1	384
HLD	88	192	2	384
HLD	89	192	3	384
TAP	90	192	4
HLD	91	192	6	192
TAP	91	192	7
HLD	92	0	5	192
TAP	92	192	4
TAP	93	0	4
TAP	93	0	6
HLD	93	192	2	192
TAP	93	192	3
HLD	94	0	1	192
TAP	94	192	0
TAP	95	0	0
TAP	95	0	7
HLD	95	192	1	96
HLD	95	192	3	96
HLD	96	0	4	96
HLD	96	0	6	96
HLD	96	192	2	96
HLD	96	192	3	96
HLD	97	0	4	96
HLD	97	0	5	96
TAP	97	192	3
TAP	97	288	2
TAP	98	0	4
TAP	98	96	5
TAP	98	192	2
TAP	98	288	1
TAP	99	0	0
TAP	99	96	0
TAP	99	96	7
BRK	99	192	1
BRK	99	192	6
TAP	100	0	2
TAP	100	48	2
TAP	100	96	2
TAP	100	192	3
TAP	100	288	4
TAP	101	0	5
TAP	101	48	5
TAP	101	96	5
TAP	101	192	6
TAP	101	192	7
TAP	101	288	0
TAP	102	0	0
TAP	102	0	1
TAP	102	96	7
TAP	102	192	6
TAP	102	192	7
TAP	102	288	0
TAP	102	288	5
TAP	103	0	1
TAP	103	0	4
STR	103	192	2
SI_	103	192	2	96	192	7
STR	104	192	6
SI_	104	192	6	96	192	3
HLD	105	192	2	192
HLD	106	0	1	192
TAP	106	192	0
TAP	106	288	0
TAP	107	0	0
TAP	107	0	7
TAP	107	192	1
TAP	107	192	3
TAP	107	288	2
TAP	108	0	3
TAP	108	0	4
TAP	108	96	5
TAP	108	192	4
TAP	108	192	6
TAP	108	288	7
TAP	109	0	0
TAP	109	0	7
TAP	109	96	1
TAP	109	96	6
TAP	109	192	2
TAP	109	192	3
TAP	109	288	2
TAP	109	288	3
TAP	110	0	4
TAP	110	0	5
TAP	110	96	4
TAP	110	96	5
TAP	110	192	6
TAP	110	192	7
TAP	110	288	0
TAP	110	288	5
TAP	111	0	1
TAP	111	0	4
TAP	111	192	2
TAP	111	240	2
TAP	111	288	2
TAP	111	288	3
TAP	112	0	1
TAP	112	0	4
TAP	112	96	2
TAP	112	96	3
TAP	112	192	5
TAP	112	240	5
TAP	112	288	4
TAP	112	288	5
TAP	113	0	3
TAP	113	0	6
TAP	113	96	4
TAP	113	96	5
TAP	113	192	6
TAP	113	240	6
TAP	113	288	6
TAP	114	0	0
TAP	114	48	0
TAP	114	96	0
TAP	114	192	0
TAP	114	192	7
TAP	114	240	0
TAP	114	240	7
TAP	114	288	0
TAP	114	288	7
TAP	115	0	1
TAP	115	0	6
TAP	115	48	1
TAP	115	48	6
TAP	115	96	1
TAP	115	96	6
HLD	115	192	2	2304
HLD	115	192	5	768
HLD	119	192	7	1152

T_REC_TAP	245
T_REC_BRK	7
T_REC_XTP	0
T_REC_HLD	44
T_REC_XHO	0
T_REC_STR	12
T_REC_BST	0
T_REC_XST	0
T_REC_TTP	24
T_REC_THO	1
T_REC_SLD	12
T_REC_ALL	345
T_NUM_TAP	281
T_NUM_BRK	7
T_NUM_HLD	45
T_NUM_SLD	12
T_NUM_ALL	345
T_JUDGE_TAP	288
T_JUDGE_HLD	268
T_JUDGE_SLD	12
T_JUDGE_ALL	568
TTM_EACHPAIRS	92
TTM_SCR_TAP	140500
TTM_SCR_BRK	18200
TTM_SCR_HLD	45000
TTM_SCR_SLD	18000
TTM_SCR_ALL	221700
TTM_SCR_S	214400
TTM_SCR_SS	221000
TTM_RAT_ACV	10031

