VERSION	0.00.00	1.03.00
FES_MODE	0
BPM_DEF	180.000	180.000	180.000	180.000
MET_DEF	4	4
RESOLUTION	384
CLK_DEF	384
COMPATIBLE_CODE	MA2

BPM	0	0	180.000
MET	0	0	4	4
MET	67	0	4	2
MET	67	192	4	4

TAP	8	0	5
TAP	10	0	4
TAP	12	0	3
TAP	14	0	2
TAP	16	0	2
TAP	17	0	2
TAP	18	0	3
TAP	19	0	3
TAP	20	0	4
TAP	21	0	4
TAP	22	0	5
TAP	23	0	6
TAP	24	0	7
TAP	24	192	7
TAP	25	0	7
TAP	26	0	6
TAP	26	192	6
TAP	27	0	6
TAP	28	0	5
TAP	28	192	5
TAP	29	0	5
TAP	30	0	4
TAP	30	192	4
TAP	31	0	3
TAP	31	0	4
TAP	32	0	3
TAP	32	192	3
TAP	33	0	3
TAP	34	0	2
TAP	34	192	2
TAP	35	0	2
TAP	36	0	1
TAP	36	192	1
TAP	37	0	1
TAP	38	0	0
TAP	38	192	0
TAP	39	0	0
TAP	39	0	7
TAP	40	0	1
TAP	40	192	1
TAP	41	0	0
TAP	41	0	1
TAP	42	0	2
TAP	42	192	2
TAP	43	0	2
TAP	43	0	3
TAP	44	0	5
TAP	44	192	5
TAP	45	0	4
TAP	45	0	5
TAP	46	0	6
TAP	46	192	6
TAP	47	0	7
TAP	47	192	0
TAP	47	192	7
TTP	50	0	7	E	0	L1
TTP	51	0	0	E	0	L1
TTP	52	0	1	E	0	L1
TTP	53	0	2	E	0	L1
TTP	54	0	3	E	0	L1
TTP	55	0	4	E	0	L1
TTP	56	0	5	E	0	L1
TTP	57	0	6	E	0	L1
STR	58	0	6
SI_	58	0	6	96	288	2
STR	60	0	1
SI_	60	0	1	96	288	5
STR	62	0	6
SI_	62	0	6	96	288	3
STR	64	0	2
SI_	64	0	2	96	288	7
XTP	67	192	7
TAP	67	288	7
TAP	68	0	7
TAP	68	192	6
TAP	68	288	6
TAP	69	0	6
TAP	69	192	4
TAP	69	192	5
TAP	70	0	4
TAP	70	0	5
HLD	70	192	4	192
HLD	70	192	5	192
TAP	71	192	3
TAP	71	288	3
TAP	72	0	3
TAP	72	192	2
TAP	72	288	2
TAP	73	0	2
TAP	73	192	0
TAP	73	192	1
TAP	74	0	0
TAP	74	0	1
TAP	74	192	0
TAP	74	192	1
TAP	75	192	0
TAP	75	288	0
TAP	76	0	0
TAP	76	192	1
TAP	76	288	1
TAP	77	0	1
TAP	77	192	2
TAP	77	192	3
TAP	78	0	2
TAP	78	0	3
HLD	78	192	2	192
HLD	78	192	3	192
TAP	79	192	4
TAP	79	288	4
TAP	80	0	4
TAP	80	192	5
TAP	80	288	5
TAP	81	0	5
TAP	81	192	6
TAP	81	192	7
TAP	82	0	6
TAP	82	0	7
TAP	82	192	6
TAP	82	192	7
HLD	83	192	7	384
HLD	85	192	6	384
HLD	87	192	5	384
TAP	89	192	4
TAP	90	0	4
TAP	90	192	3
TAP	90	192	4
HLD	91	192	3	384
HLD	93	192	2	384
HLD	95	192	1	384
TAP	97	192	0
TAP	98	0	0
TAP	98	192	0
TAP	98	192	7
BRK	99	192	0
TAP	99	288	0
TAP	100	0	0
TAP	100	192	1
TAP	100	288	1
TAP	101	0	1
TAP	101	192	2
TAP	101	288	2
TAP	102	0	2
TAP	102	0	3
TAP	102	192	4
TAP	103	0	3
TAP	103	192	4
TAP	103	288	4
TAP	104	0	4
TAP	104	192	5
TAP	104	288	5
TAP	105	0	5
TAP	105	192	6
TAP	105	288	6
TAP	106	0	6
TAP	106	0	7
TAP	106	192	0
TAP	107	0	0
TAP	107	0	7
TAP	107	192	7
TAP	108	0	6
TAP	108	0	7
TAP	108	192	5
TAP	109	0	4
TAP	109	0	5
TAP	109	192	2
TAP	110	0	2
TAP	110	0	3
TAP	110	192	1
TAP	111	0	0
TAP	111	0	1
TAP	111	192	0
TAP	112	0	0
TAP	112	0	1
TAP	112	192	2
TAP	113	0	2
TAP	113	0	3
TAP	113	192	5
TAP	114	0	4
TAP	114	0	5
TAP	114	192	6
TAP	115	0	6
TAP	115	0	7
STR	115	192	0
SI_	115	192	0	96	288	4
STR	117	192	7
SI_	117	192	7	96	288	3
STR	119	192	1
SI_	119	192	1	96	288	5
TAP	121	192	6
BRK	122	192	7

T_REC_TAP	155
T_REC_BRK	2
T_REC_XTP	1
T_REC_HLD	10
T_REC_XHO	0
T_REC_STR	7
T_REC_BST	0
T_REC_XST	0
T_REC_TTP	8
T_REC_THO	0
T_REC_SLD	7
T_REC_ALL	190
T_NUM_TAP	171
T_NUM_BRK	2
T_NUM_HLD	10
T_NUM_SLD	7
T_NUM_ALL	190
T_JUDGE_TAP	173
T_JUDGE_HLD	64
T_JUDGE_SLD	7
T_JUDGE_ALL	244
TTM_EACHPAIRS	31
TTM_SCR_TAP	85500
TTM_SCR_BRK	5200
TTM_SCR_HLD	10000
TTM_SCR_SLD	10500
TTM_SCR_ALL	111200
TTM_SCR_S	107700
TTM_SCR_SS	111000
TTM_RAT_ACV	10018

