VERSION	0.00.00	1.03.00
FES_MODE	0
BPM_DEF	154.000	154.000	154.000	154.000
MET_DEF	4	4
RESOLUTION	384
CLK_DEF	384
COMPATIBLE_CODE	MA2

BPM	0	0	154.000
MET	0	0	4	4

THO	1	0	0	384	C	1	M1
STR	2	0	0
SLL	2	0	0	96	96	4
SLR	2	0	0	96	96	4
STR	2	336	2
SSL	2	336	2	96	120	6
STR	2	336	6
SSL	2	336	6	96	120	2
TAP	3	240	4
TAP	3	240	5
TAP	3	312	2
TAP	3	312	3
STR	4	0	0
SCR	4	0	0	96	96	3
STR	4	0	7
SUR	4	0	7	96	96	4
TAP	4	264	3
TAP	4	264	4
TAP	4	288	3
TAP	4	288	4
TAP	4	336	1
TAP	4	336	6
TAP	5	0	0
HLD	5	0	7	96
TAP	5	16	1
TAP	5	32	2
HLD	5	48	3	96
TAP	5	112	6
TAP	5	128	5
HLD	5	144	4	96
TAP	5	240	3
TAP	5	288	4
TAP	5	312	4
TAP	5	336	3
TAP	6	0	1
STR	6	0	6
SCL	6	0	6	96	144	1
SUR	6	0	6	96	144	1
STR	6	336	0
SSL	6	336	0	96	120	4
STR	6	336	2
SSR	6	336	2	96	120	6
TAP	7	240	5
TAP	7	240	7
TAP	7	288	1
TAP	7	288	7
TAP	7	304	2
TAP	7	320	3
HLD	7	336	4	48
STR	8	0	0
SSR	8	0	0	96	48	4
THO	8	192	0	192	C	1	M1
BRK	9	0	6
TAP	9	48	5
TAP	9	48	7
BRK	9	96	1
TAP	9	144	0
TAP	9	144	2
BRK	9	192	3
BRK	9	192	4
TAP	9	240	2
TAP	9	240	5
BRK	9	288	1
BST	9	288	6
SCL	9	288	6	96	120	7
HLD	10	0	0	192
TAP	10	240	1
STR	10	288	1
SCR	10	288	1	96	96	6
TAP	10	336	7
HLD	11	0	7	96
TAP	11	144	0
TAP	11	192	2
TAP	11	240	3
TAP	11	288	4
TAP	11	288	5
TAP	11	336	7
HLD	12	0	6	144
TAP	12	48	4
TAP	12	96	3
STR	12	144	2
SI_	12	144	2	96	48	7
TAP	12	240	3
TAP	12	288	3
TAP	13	0	5
TAP	13	24	4
TAP	13	48	5
TAP	13	96	2
TAP	13	120	3
TAP	13	144	2
TAP	13	192	1
TAP	13	192	3
TAP	13	240	4
TAP	13	240	5
BST	13	288	1
SCR	13	288	1	96	120	0
BRK	13	288	6
HLD	14	0	7	192
TAP	14	240	6
STR	14	288	6
SCL	14	288	6	96	96	1
TAP	14	336	0
HLD	15	0	0	96
TAP	15	144	7
STR	15	192	5
SCL	15	192	5	96	48	2
SCR	15	192	5	96	48	0
TAP	15	240	4
HLD	16	0	0	48
HLD	16	0	1	48
TAP	16	72	0
TAP	16	72	1
HLD	16	144	2	48
HLD	16	144	3	48
TAP	16	216	2
TAP	16	216	3
TAP	16	264	4
BRK	16	288	3
BRK	16	288	5
HLD	17	0	6	48
HLD	17	0	7	48
TAP	17	72	6
TAP	17	72	7
HLD	17	144	4	48
HLD	17	144	5	48
TAP	17	216	4
TAP	17	216	5
TAP	17	264	3
BRK	17	288	2
BRK	17	288	4
HLD	18	0	1	48
HLD	18	0	3	48
TAP	18	72	1
TAP	18	72	3
HLD	18	144	0	48
HLD	18	144	7	48
TAP	18	216	0
TAP	18	216	7
TAP	18	264	1
BRK	18	288	0
BRK	18	288	2
HLD	19	0	4	48
HLD	19	0	6	48
TAP	19	72	4
TAP	19	72	6
HLD	19	144	0	48
HLD	19	144	7	48
TAP	19	216	0
TAP	19	216	7
TAP	19	264	6
BRK	19	288	5
BRK	19	288	7
STR	20	0	3
SCL	20	0	3	96	456	4
SXR	20	0	3	96	456	4
TAP	20	0	4
TTP	21	240	2	E	0	M1
TTP	21	288	6	E	0	M1
TTP	21	336	0	E	0	M1
HLD	22	0	3	96
TAP	22	0	4
TTP	22	96	2	B	0	M1
TAP	22	192	3
TAP	22	192	4
TAP	22	240	5
TAP	22	288	3
TAP	22	288	4
TAP	22	336	2
TTP	23	0	6	B	0	M1
TTP	23	0	6	E	0	M1
TTP	23	48	0	B	0	M1
TTP	23	48	1	E	0	M1
TTP	23	96	7	B	0	M1
TTP	23	96	7	E	0	M1
TTP	23	144	1	B	0	M1
TTP	23	144	2	E	0	M1
TAP	23	240	0
TAP	23	240	7
TAP	23	288	0
TAP	23	288	7
TAP	24	0	3
HLD	24	0	4	96
TTP	24	96	5	B	0	M1
TAP	24	192	3
TAP	24	192	4
TAP	24	240	2
TAP	24	288	3
TAP	24	288	4
TAP	24	336	5
TTP	25	0	4	B	0	M1
TTP	25	0	4	E	0	M1
TTP	25	48	0	B	0	M1
TTP	25	48	0	E	0	M1
TTP	25	96	1	B	0	M1
TTP	25	96	2	E	0	M1
TTP	25	144	6	B	0	M1
TTP	25	144	6	E	0	M1
TAP	25	240	0
TAP	25	240	7
TAP	25	288	1
TAP	25	288	6
HLD	26	0	2	96
TAP	26	0	3
TTP	26	96	1	E	0	M1
TAP	26	192	2
TAP	26	192	3
TAP	26	240	4
TAP	26	288	2
TAP	26	288	3
TAP	26	336	1
TTP	27	0	5	E	0	M1
TTP	27	0	6	E	0	M1
TTP	27	48	2	E	0	M1
TTP	27	48	3	E	0	M1
TTP	27	96	3	B	0	M1
TTP	27	96	4	B	0	M1
TTP	27	144	0	C	0	M1
TTP	27	144	0	E	0	M1
TAP	27	240	0
TAP	27	240	7
TAP	27	288	1
TAP	27	288	6
HLD	27	336	2	48
HLD	27	336	5	48
TTP	28	48	5	E	0	M1
TTP	28	96	6	E	0	M1
TTP	28	144	7	E	0	M1
TTP	28	192	0	E	0	M1
TTP	28	240	1	E	0	M1
TTP	28	288	2	E	0	M1
TTP	28	336	3	E	0	M1
TAP	29	0	3
TAP	29	0	4
TAP	29	48	5
TAP	29	48	6
TAP	29	96	0
TAP	29	96	7
TAP	29	144	1
TAP	29	144	2
BRK	29	240	0
BRK	29	240	7
BRK	29	288	0
BRK	29	288	7
TAP	30	0	3
TAP	30	0	4
TAP	30	48	1
TAP	30	72	1
TAP	30	96	3
TAP	30	144	2
TAP	30	144	4
TAP	30	192	3
TAP	30	192	4
TAP	30	240	1
TAP	30	264	1
STR	30	288	3
SCR	30	288	3	96	96	7
TAP	30	336	2
TAP	30	336	4
STR	31	0	7
SI_	31	0	7	96	48	3
TAP	31	48	7
TAP	31	96	5
TAP	31	144	5
HLD	31	240	7	48
HLD	31	288	5	48
TAP	31	336	4
TAP	32	0	3
TAP	32	0	4
TAP	32	48	6
TAP	32	72	6
TAP	32	96	4
TAP	32	144	3
TAP	32	144	5
TAP	32	192	3
TAP	32	192	4
TAP	32	240	6
TAP	32	264	6
STR	32	288	4
SCL	32	288	4	96	96	0
TAP	32	336	3
TAP	32	336	5
STR	33	0	0
SI_	33	0	0	96	48	4
TAP	33	48	0
TAP	33	96	2
TAP	33	144	2
XTP	33	192	1
XTP	33	224	1
XTP	33	256	1
XTP	33	288	6
XTP	33	320	6
XTP	33	352	6
TAP	34	0	0
TAP	34	0	7
TAP	34	48	7
TAP	34	96	6
TAP	34	96	7
TAP	34	144	6
TAP	34	192	5
TAP	34	192	6
TAP	34	240	5
TAP	34	288	4
TAP	34	288	5
TAP	34	336	4
TAP	35	0	3
TAP	35	0	4
TAP	35	48	3
TAP	35	96	2
TAP	35	96	3
TAP	35	144	2
TAP	35	192	1
TAP	35	192	2
TAP	35	240	1
TAP	35	288	0
TAP	35	288	1
TAP	36	0	7
TAP	36	24	0
TAP	36	48	7
TAP	36	72	0
TAP	36	96	6
TAP	36	120	1
TAP	36	144	6
TAP	36	168	1
TAP	36	192	5
TAP	36	216	2
TAP	36	240	5
TAP	36	264	2
TAP	36	288	4
TAP	36	312	3
TAP	36	336	4
XTP	37	0	1
XTP	37	12	2
XTP	37	24	3
XTP	37	36	4
XTP	37	48	5
XTP	37	60	6
XTP	37	72	7
XTP	37	84	0
XTP	37	96	1
XTP	37	96	5
BRK	37	144	3
BRK	37	144	7
TAP	37	240	2
TAP	37	240	5
BRK	37	288	0
BRK	37	288	7
STR	38	0	1
SI_	38	0	1	96	48	3
STR	38	0	4
SI_	38	0	4	96	48	0
TAP	38	48	2
TAP	38	48	5
STR	38	192	0
SI_	38	192	0	96	48	4
TAP	38	192	3
TAP	38	240	1
TAP	38	240	4
HLD	38	336	1	288
TAP	39	48	3
TAP	39	96	2
TAP	39	144	0
TAP	39	192	2
TAP	39	240	3
TAP	39	288	1
TAP	39	288	6
TAP	39	336	2
TAP	39	336	5
STR	40	0	3
SI_	40	0	3	96	48	7
STR	40	0	6
SI_	40	0	6	96	48	4
TAP	40	48	4
TAP	40	48	7
TAP	40	192	4
STR	40	192	7
SI_	40	192	7	96	48	3
TAP	40	240	3
TAP	40	240	6
HLD	40	336	6	240
TAP	41	48	4
TAP	41	96	5
TAP	41	144	7
TAP	41	192	0
TTP	41	240	1	B	0	M1
TTP	41	240	2	B	0	M1
TTP	41	240	2	E	0	M1
TTP	41	288	1	B	0	M1
TTP	41	288	2	B	0	M1
TTP	41	288	2	E	0	M1
STR	42	0	0
SI_	42	0	0	96	48	3
STR	42	0	4
SI_	42	0	4	96	48	7
TAP	42	48	1
TAP	42	48	5
STR	42	192	3
SI_	42	192	3	96	48	0
STR	42	192	7
SI_	42	192	7	96	48	4
TAP	42	240	0
TAP	42	240	4
TAP	43	0	0
TAP	43	0	4
TAP	43	48	3
TAP	43	48	7
TAP	43	96	0
TAP	43	96	4
TAP	43	144	3
TAP	43	144	7
TAP	43	192	0
TAP	43	192	4
TAP	43	240	1
TAP	43	240	5
TAP	43	288	2
TAP	43	288	6
TAP	43	336	3
TAP	43	336	7
TAP	44	48	0
TAP	44	48	1
TTP	44	96	0	C	1	M1
TTP	44	96	6	B	0	M1
TTP	44	96	7	E	0	M1
TAP	44	192	6
TAP	44	192	7
TTP	44	240	0	C	1	M1
TTP	44	240	1	B	0	M1
TTP	44	240	1	E	0	M1
TAP	44	336	0
TAP	44	336	7
TTP	45	0	0	C	1	M1
TTP	45	0	5	B	0	M1
TTP	45	0	5	E	0	M1
TAP	45	96	3
TAP	45	96	4
TTP	45	144	0	C	1	M1
TTP	45	144	2	B	0	M1
TTP	45	144	3	E	0	M1
TAP	45	240	0
TAP	45	240	7
TTP	45	288	0	C	1	M1
TTP	45	288	5	B	0	M1
TTP	45	288	5	E	0	M1
TAP	46	48	1
TAP	46	48	2
TTP	46	96	0	C	1	M1
TTP	46	96	0	E	0	M1
TTP	46	96	4	E	0	M1
TAP	46	192	5
TAP	46	192	6
TTP	46	240	0	C	1	M1
TTP	46	240	0	E	0	M1
TTP	46	240	4	E	0	M1
TAP	46	336	1
TAP	46	336	2
TTP	47	0	0	C	1	M1
TTP	47	0	1	B	0	M1
TTP	47	0	2	B	0	M1
TTP	47	0	2	E	0	M1
TTP	47	0	5	B	0	M1
TTP	47	0	6	B	0	M1
TTP	47	0	6	E	0	M1
BRK	47	288	0
BRK	47	288	7
TAP	48	0	1
TAP	48	24	3
TAP	48	48	1
TAP	48	72	3
TAP	48	96	1
TAP	48	120	2
TAP	48	144	1
TAP	48	168	2
TAP	48	192	1
TAP	48	216	3
TAP	48	240	1
BRK	48	288	0
BRK	48	288	7
TAP	49	0	6
TAP	49	24	4
TAP	49	48	6
TAP	49	72	4
TAP	49	96	6
TAP	49	120	5
TAP	49	144	6
TAP	49	168	5
TAP	49	192	6
TAP	49	216	4
TAP	49	240	6
BRK	49	288	0
BRK	49	288	7
XTP	50	0	4
XTP	50	0	5
XTP	50	48	2
XTP	50	48	3
XTP	50	120	5
XTP	50	120	6
HLD	50	192	1	72
TAP	50	240	0
TAP	50	264	0
BRK	50	312	2
BRK	50	312	6
TAP	51	0	5
TAP	51	24	4
TAP	51	48	7
TAP	51	96	2
TAP	51	120	3
TAP	51	144	0
TAP	51	192	1
TAP	51	192	3
TAP	51	240	4
TAP	51	240	6
BRK	51	288	1
BRK	51	288	5
TAP	52	0	3
TAP	52	0	4
TAP	52	48	1
TAP	52	60	2
HLD	52	72	3	48
TAP	52	120	7
TAP	52	132	0
HLD	52	144	1	48
TAP	52	192	6
TAP	52	204	5
HLD	52	216	4	48
TAP	52	264	0
TAP	52	276	7
HLD	52	288	6	48
TAP	52	336	1
TAP	52	348	2
HLD	52	360	3	48
TAP	53	24	0
TAP	53	36	1
HLD	53	48	2	48
TAP	53	96	6
TAP	53	108	5
HLD	53	120	4	48
TAP	53	168	7
TAP	53	180	6
TAP	53	192	5
XTP	53	240	3
XTP	53	240	4
XTP	53	252	2
XTP	53	252	5
XTP	53	264	1
XTP	53	264	6
XTP	53	312	1
XTP	53	312	6
XTP	53	324	2
XTP	53	324	5
XTP	53	336	3
XTP	53	336	4
TAP	54	0	3
TAP	54	24	4
TAP	54	48	3
TAP	54	96	6
TAP	54	96	7
TAP	54	120	6
TAP	54	120	7
HLD	54	168	5	72
TAP	54	240	4
TAP	54	288	2
TAP	54	312	3
TAP	54	336	1
HLD	54	360	1	72
TAP	55	48	0
TAP	55	96	6
TAP	55	96	7
TAP	55	120	6
TAP	55	120	7
BRK	55	168	4
BRK	55	168	5
BRK	55	216	2
BRK	55	216	3
BRK	55	264	4
BRK	55	264	6
BRK	55	312	1
BRK	55	312	5
TAP	56	0	6
TAP	56	24	4
TAP	56	48	6
TAP	56	72	4
TAP	56	96	6
TAP	56	120	7
TAP	56	144	6
TAP	56	168	7
TAP	56	192	6
TAP	56	216	4
TAP	56	240	6
BRK	56	288	0
BRK	56	288	7
TAP	57	0	1
TAP	57	24	3
TAP	57	48	1
TAP	57	72	3
TAP	57	96	1
TAP	57	120	0
TAP	57	144	1
TAP	57	168	0
TAP	57	192	1
TAP	57	216	3
TAP	57	240	1
BRK	57	288	0
BRK	57	288	7
TAP	58	0	6
TAP	58	24	4
TAP	58	48	5
TAP	58	72	3
TAP	58	96	4
TAP	58	120	2
TAP	58	144	3
TAP	58	192	1
TAP	58	216	3
TAP	58	240	2
TAP	58	264	4
TAP	58	288	3
TAP	58	312	5
TAP	58	336	4
HLD	58	360	6	72
TAP	59	48	7
XTP	59	96	0
XTP	59	108	1
XTP	59	120	2
XTP	59	132	3
XTP	59	144	0
XTP	59	156	1
XTP	59	168	2
XTP	59	180	3
XTP	59	192	7
XTP	59	204	6
XTP	59	216	5
XTP	59	228	4
XTP	59	240	7
XTP	59	252	6
XTP	59	264	5
XTP	59	276	4
XTP	59	288	3
XTP	59	300	2
XTP	59	312	1
XTP	59	324	0
XTP	59	336	7
XTP	59	348	6
XTP	59	360	5
XTP	59	372	4
BRK	60	0	3
STR	60	0	7
SCR	60	0	7	96	48	3
TAP	60	96	4
TAP	60	112	5
TAP	60	128	6
TAP	60	144	7
STR	60	192	1
SCL	60	192	1	96	48	6
BRK	60	192	7
TAP	60	288	5
TAP	60	304	4
TAP	60	320	3
HLD	60	336	2	96
TAP	61	48	1
TAP	61	72	1
TAP	61	96	3
TAP	61	120	2
TAP	61	144	6
TAP	61	168	6
TAP	61	192	0
TAP	61	216	7
TAP	61	240	0
TAP	61	264	7
BRK	61	288	1
BRK	61	288	6
TAP	62	0	3
TAP	62	0	4
TAP	62	48	0
STR	62	48	1
SCR	62	48	1	96	48	6
TAP	62	72	0
TAP	62	72	1
HLD	62	144	7	96
TAP	62	240	0
TAP	62	288	1
TAP	62	288	6
BRK	62	336	2
BRK	62	336	5
TTP	63	48	2	E	0	M1
TTP	63	72	5	B	0	M1
TTP	63	96	1	E	0	M1
TTP	63	120	7	E	0	M1
TTP	63	144	3	E	0	M1
TTP	63	168	6	E	0	M1
TTP	63	192	2	B	0	M1
TTP	63	216	5	E	0	M1
TTP	63	240	1	B	0	M1
TTP	63	264	6	B	0	M1
TTP	63	288	0	C	1	M1
STR	64	0	0
SLR	64	0	0	96	96	4
STR	64	0	7
SLL	64	0	7	96	96	3
STR	64	336	1
SSL	64	336	1	96	120	5
STR	64	336	5
SSR	64	336	5	96	120	1
TAP	65	240	2
TAP	65	240	3
TAP	65	312	4
TAP	65	312	5
STR	66	0	0
SCR	66	0	0	96	96	3
STR	66	0	4
SUL	66	0	4	96	96	7
TAP	66	264	3
TAP	66	264	4
TAP	66	288	3
TAP	66	288	4
TAP	66	336	2
TAP	66	336	7
TAP	67	0	0
HLD	67	0	1	96
TAP	67	16	7
TAP	67	32	6
HLD	67	48	5	96
TAP	67	112	2
TAP	67	128	3
HLD	67	144	4	96
TAP	67	240	0
TAP	67	288	3
TAP	67	312	3
TAP	67	336	4
STR	68	0	1
SCR	68	0	1	96	144	6
SXR	68	0	1	96	144	6
TAP	68	0	6
STR	68	336	5
SSL	68	336	5	96	120	1
STR	68	336	7
SSR	68	336	7	96	120	3
TAP	69	240	0
TAP	69	240	2
TAP	69	288	0
TAP	69	288	6
TAP	69	304	5
TAP	69	320	4
HLD	69	336	3	48
STR	70	0	7
SCL	70	0	7	96	96	0
TAP	70	264	3
TAP	70	264	4
TAP	70	288	3
TAP	70	288	4
BRK	70	336	1
BRK	70	336	3
TAP	71	0	5
BRK	71	24	4
BRK	71	24	5
TAP	71	72	2
BRK	71	96	2
BRK	71	96	3
TAP	71	144	5
BRK	71	168	4
BRK	71	168	6
TAP	71	216	2
BRK	71	240	1
BRK	71	240	3
TAP	71	288	5
BRK	71	312	4
BRK	71	312	6
TAP	72	0	2
TAP	72	24	3
TAP	72	48	2
TAP	72	72	3
TAP	72	96	2
TAP	72	120	3
TAP	72	144	2
TAP	72	168	3
TAP	72	192	1
TAP	72	216	3
TAP	72	240	2
TAP	72	264	3
TAP	72	288	2
TAP	72	312	3
TAP	72	336	2
TAP	72	360	3
TAP	73	0	0
TAP	73	24	3
TAP	73	48	2
TAP	73	72	3
TAP	73	96	2
TAP	73	120	3
TAP	73	144	2
TAP	73	168	3
TAP	73	192	0
TAP	73	216	3
TAP	73	240	2
TTP	73	288	6	B	0	M1
TTP	73	288	6	E	0	M1
TTP	73	288	7	E	0	M1
TTP	73	336	1	B	0	M1
TTP	73	336	1	E	0	M1
TTP	73	336	2	E	0	M1
TAP	74	0	5
TAP	74	24	4
TAP	74	48	5
TAP	74	72	4
TAP	74	96	5
TAP	74	120	4
TAP	74	144	5
TAP	74	168	4
TAP	74	192	6
TAP	74	216	4
TAP	74	240	5
TAP	74	264	4
TAP	74	288	5
TAP	74	312	4
TAP	74	336	5
TAP	74	360	4
TAP	75	0	7
TAP	75	24	4
TAP	75	48	5
TAP	75	72	4
TAP	75	96	5
TAP	75	120	4
TAP	75	144	5
TAP	75	168	4
STR	75	192	7
SI_	75	192	7	96	48	3
TAP	75	216	4
TAP	75	240	5
TAP	76	0	2
TAP	76	12	3
TAP	76	24	2
TAP	76	36	3
TAP	76	48	2
TAP	76	60	3
TAP	76	72	2
TAP	76	84	3
BRK	76	96	2
TAP	76	192	5
TAP	76	204	4
TAP	76	216	5
TAP	76	228	4
TAP	76	240	5
TAP	76	252	4
TAP	76	264	5
TAP	76	276	4
BRK	76	288	5
TAP	77	0	1
TAP	77	12	2
TAP	77	24	1
TAP	77	36	2
TAP	77	48	1
TAP	77	60	2
TAP	77	72	1
TAP	77	84	2
BRK	77	96	1
TAP	77	192	6
TAP	77	204	5
TAP	77	216	6
TAP	77	228	5
TAP	77	240	6
TAP	77	252	5
TAP	77	264	6
TAP	77	276	5
BST	77	288	6
SCR	77	288	6	96	288	6
BRK	79	0	0
BRK	79	0	2
TAP	79	48	1
BRK	79	96	5
BRK	79	96	7
TAP	79	144	6
BRK	79	192	3
BRK	79	192	4
TAP	79	240	2
TAP	79	240	5
BST	79	288	0
SSL	79	288	0	96	48	4
BST	79	288	7
SSR	79	288	7	96	48	3
BRK	80	0	0
BRK	80	0	7
STR	80	96	1
SI_	80	96	1	96	48	3
TAP	80	96	6
STR	80	144	7
SI_	80	144	7	96	48	5
STR	80	192	0
SI_	80	192	0	96	48	4
BRK	80	336	7
TAP	81	0	2
TAP	81	24	2
TAP	81	48	0
TAP	81	96	5
TAP	81	120	5
TAP	81	144	7
BRK	81	192	1
BRK	81	192	4
BRK	81	240	3
BRK	81	240	6
BST	81	288	0
SSR	81	288	0	96	96	4
BRK	81	288	7
BRK	81	336	1
BRK	81	336	6
BRK	82	144	1
BRK	82	144	5
TAP	82	192	0
STR	82	192	6
SUL	82	192	6	96	48	1
TAP	82	208	1
TAP	82	224	2
TAP	82	240	3
TAP	82	256	4
TAP	82	272	5
TAP	82	288	6
TAP	83	0	5
TAP	83	24	5
TAP	83	48	0
TAP	83	72	0
TAP	83	96	7
TAP	83	120	7
TAP	83	144	2
TAP	83	192	3
TAP	83	192	4
TAP	83	240	6
TAP	83	240	7
BRK	83	288	1
BRK	83	288	5
TAP	84	0	0
STR	84	0	7
SI_	84	0	7	96	48	4
STR	84	48	3
SI_	84	48	3	96	48	0
TAP	84	48	4
TAP	84	96	7
TAP	84	144	3
BST	84	192	6
SI_	84	192	6	96	48	3
STR	84	240	2
SI_	84	240	2	96	48	7
TAP	84	240	4
TAP	84	288	6
TAP	84	336	2
TAP	85	0	6
TAP	85	48	2
TAP	85	72	3
TAP	85	96	1
TAP	85	120	5
TAP	85	144	4
TAP	85	168	6
TAP	85	192	2
TAP	85	216	3
TAP	85	240	0
TAP	85	264	5
TAP	85	288	4
TAP	85	312	7
BRK	85	336	1
BRK	85	336	6
HLD	86	0	5	96
TAP	86	32	4
TAP	86	64	4
HLD	86	96	1	96
TAP	86	128	2
TAP	86	160	2
HLD	86	192	7	96
TAP	86	224	4
TAP	86	256	4
HLD	86	288	0	96
TAP	86	320	3
TAP	86	352	3
TAP	87	0	6
TAP	87	32	6
TAP	87	64	6
STR	87	96	1
SF_	87	96	1	96	144	5
TAP	87	128	1
TAP	87	160	1
TTP	88	0	0	C	0	M1
TAP	88	96	1
STR	88	96	6
SI_	88	96	6	96	48	4
STR	88	144	0
SI_	88	144	0	96	48	2
STR	88	192	7
SI_	88	192	7	96	48	3
BRK	88	336	0
TAP	89	48	0
TAP	89	48	1
TAP	89	96	3
TAP	89	96	4
TAP	89	144	7
TAP	89	168	7
TAP	89	192	5
TAP	89	240	0
TAP	89	264	0
TAP	89	288	2
TAP	89	336	3
TAP	89	336	4
TTP	90	0	0	C	1	M1
TTP	90	0	2	B	0	M1
XTP	90	0	6
TTP	90	96	0	C	1	M1
XTP	90	96	1
TTP	90	96	5	B	0	M1
TTP	90	192	0	C	1	M1
TTP	90	192	3	B	0	M1
XTP	90	192	7
XTP	90	288	0
TTP	90	288	0	C	1	M1
TTP	90	288	4	B	0	M1
XTP	91	0	0
XTP	91	0	7
TTP	91	32	0	C	1	M1
XTP	91	96	0
XTP	91	96	7
TTP	91	128	0	C	1	M1
XTP	91	192	0
XTP	91	192	7
TTP	91	224	0	C	1	M1
BRK	91	288	0
BRK	91	288	7
TAP	91	300	6
TAP	91	312	5
TAP	91	324	4
TAP	91	336	3
TAP	91	348	2
TAP	91	360	1
TAP	91	372	0
HLD	92	0	7	96
TAP	92	108	0
TAP	92	120	1
TAP	92	132	2
TAP	92	144	3
TAP	92	156	4
TAP	92	168	5
TAP	92	180	6
HLD	92	192	7	96
TAP	92	300	5
TAP	92	312	4
TAP	92	324	3
TAP	92	336	2
TAP	92	348	1
TAP	92	360	0
TAP	92	372	7
HLD	93	0	6	96
TAP	93	72	4
TAP	93	96	4
TAP	93	144	3
TAP	93	144	7
TAP	93	192	1
TAP	93	204	2
TAP	93	216	3
TAP	93	228	4
TAP	93	240	5
TAP	93	252	6
TAP	93	264	7
TAP	93	276	0
BRK	93	288	1
BRK	93	288	5
TAP	94	0	3
TAP	94	0	4
TTP	94	48	3	E	0	M1
TTP	94	96	2	E	0	M1
TTP	94	144	1	E	0	M1
TTP	94	192	0	E	0	M1
TTP	94	240	7	E	0	M1
TTP	94	288	6	E	0	M1
TTP	94	336	5	E	0	M1
HLD	95	0	3	48
HLD	95	0	4	48
TAP	95	72	4
TAP	95	72	5
BRK	95	144	6
BRK	95	144	7
HLD	95	192	3	48
HLD	95	192	4	48
TAP	95	264	2
TAP	95	264	3
BRK	95	336	0
BRK	95	336	1
HLD	96	0	4	48
HLD	96	0	5	48
TAP	96	72	5
TAP	96	72	6
HLD	96	144	2	48
HLD	96	144	3	48
TAP	96	216	1
TAP	96	216	2
BRK	96	288	0
BRK	96	288	7
TAP	97	0	3
TAP	97	0	4
TAP	97	48	6
TAP	97	48	7
TAP	97	72	6
TAP	97	72	7
TAP	97	144	4
TAP	97	144	5
TAP	97	192	2
TAP	97	192	7
TAP	97	216	2
TAP	97	216	7
TAP	97	264	1
BRK	97	288	0
BRK	97	288	2
TAP	98	0	3
TAP	98	0	4
TAP	98	48	0
TAP	98	48	1
TAP	98	72	0
TAP	98	72	1
TAP	98	144	2
TAP	98	144	3
TAP	98	192	0
TAP	98	192	5
TAP	98	216	0
TAP	98	216	5
TAP	98	264	6
BRK	98	288	5
BRK	98	288	7
TAP	99	0	3
TAP	99	0	4
TAP	99	48	4
TAP	99	48	6
TAP	99	72	4
TAP	99	72	6
TAP	99	144	3
TAP	99	144	5
TAP	99	192	0
TAP	99	192	2
TAP	99	216	0
TAP	99	216	2
TAP	99	264	5
TAP	99	264	6
BRK	99	288	4
BRK	99	288	7
TAP	100	0	3
TAP	100	0	4
TAP	100	48	1
TAP	100	48	3
TAP	100	72	1
TAP	100	72	3
TAP	100	144	2
TAP	100	144	4
TAP	100	192	5
TAP	100	192	7
TAP	100	216	5
TAP	100	216	7
TAP	100	264	1
TAP	100	264	2
BRK	100	288	0
BRK	100	288	3
STR	101	0	0
SCR	101	0	0	96	456	7
SXL	101	0	0	96	456	7
TAP	101	0	7
TAP	103	0	1
TAP	103	24	1
TAP	103	48	3
TAP	103	72	3
TAP	103	96	2
TAP	103	108	4
TAP	103	120	2
TAP	103	132	4
TAP	103	144	2
TAP	103	156	4
TAP	103	168	2
TAP	103	192	6
TAP	103	216	6
TAP	103	240	4
TAP	103	264	4
TAP	103	288	5
TAP	103	300	3
TAP	103	312	5
TAP	103	324	3
TAP	103	336	5
TAP	103	348	3
TAP	103	360	5
TAP	104	0	0
TAP	104	24	0
TAP	104	48	7
TAP	104	72	7
TAP	104	96	1
TAP	104	120	1
TAP	104	144	6
TAP	104	168	6
TAP	104	192	0
TAP	104	204	7
TAP	104	216	0
TAP	104	228	7
TAP	104	240	0
TAP	104	252	7
TAP	104	264	0
TAP	104	276	7
TAP	104	288	0
TAP	104	300	7
TAP	104	312	0
TAP	104	324	7
TAP	104	336	0
TAP	104	348	7
TAP	104	360	0
TAP	104	372	7
BST	105	0	0
SCR	105	0	0	96	564	7

T_REC_TAP	722
T_REC_BRK	106
T_REC_XTP	68
T_REC_HLD	66
T_REC_XHO	0
T_REC_STR	54
T_REC_BST	8
T_REC_XST	0
T_REC_TTP	107
T_REC_THO	2
T_REC_SLD	68
T_REC_ALL	1201
T_NUM_TAP	951
T_NUM_BRK	114
T_NUM_HLD	68
T_NUM_SLD	68
T_NUM_ALL	1201
T_JUDGE_TAP	1065
T_JUDGE_HLD	119
T_JUDGE_SLD	68
T_JUDGE_ALL	1252
TTM_EACHPAIRS	243
TTM_SCR_TAP	475500
TTM_SCR_BRK	296400
TTM_SCR_HLD	68000
TTM_SCR_SLD	102000
TTM_SCR_ALL	941900
TTM_SCR_S	902600
TTM_SCR_SS	930500
TTM_RAT_ACV	10122

