VERSION	0.00.00	1.03.00
FES_MODE	0
BPM_DEF	154.000	154.000	154.000	154.000
MET_DEF	4	4
RESOLUTION	384
CLK_DEF	384
COMPATIBLE_CODE	MA2

BPM	0	0	154.000
MET	0	0	4	4

THO	1	0	0	288	C	1	M1
XHO	2	0	0	288
XHO	2	0	7	288
XHO	2	336	3	240
XHO	2	336	6	240
XTP	3	240	3
XTP	3	240	6
XTP	3	312	1
XTP	3	312	4
XHO	4	0	0	192
XHO	4	0	7	192
XTP	4	264	2
XTP	4	288	3
XHO	4	336	1	144
XHO	4	336	4	144
XTP	5	144	1
XTP	5	144	4
XTP	5	240	3
XTP	5	240	6
XTP	5	288	5
XTP	5	312	4
XHO	6	0	3	288
XHO	6	0	6	288
XHO	6	336	1	240
XHO	6	336	4	240
XTP	7	240	1
XTP	7	240	4
TAP	7	288	4
TAP	7	336	4
XHO	8	0	3	192
XHO	8	0	5	192
TAP	8	288	3
TAP	8	288	4
XTP	9	0	1
XTP	9	0	3
XTP	9	96	4
XTP	9	96	6
XTP	9	192	0
XTP	9	192	7
BRK	9	288	2
BRK	9	288	5
STR	10	0	1
SI_	10	0	1	96	48	3
STR	10	96	0
SI_	10	96	0	96	48	4
TAP	10	192	2
TAP	10	240	2
TAP	10	288	3
TAP	11	0	1
HLD	11	0	4	96
TAP	11	96	3
TAP	11	144	3
TAP	11	192	5
TAP	11	288	2
TAP	11	288	6
STR	12	0	7
SCL	12	0	7	96	48	4
TAP	12	96	3
STR	12	192	0
SCR	12	192	0	96	48	3
TAP	12	288	4
STR	13	0	5
SCR	13	0	5	96	96	2
BRK	13	288	0
BRK	13	288	5
STR	14	0	6
SI_	14	0	6	96	48	4
STR	14	96	7
SI_	14	96	7	96	48	3
TAP	14	192	5
TAP	14	240	5
TAP	14	288	4
HLD	15	0	3	96
TAP	15	0	6
TAP	15	96	4
TAP	15	144	4
TAP	15	192	2
TAP	15	288	1
TAP	15	288	5
XHO	16	0	6	72
HLD	16	72	5	72
HLD	16	144	4	72
TAP	16	216	3
TAP	16	288	2
TAP	16	288	6
XHO	17	0	1	72
HLD	17	72	2	72
HLD	17	144	3	72
TAP	17	216	4
TAP	17	288	1
TAP	17	288	5
XHO	18	0	4	72
HLD	18	72	5	72
HLD	18	144	6	72
TAP	18	216	7
TAP	18	288	0
TAP	18	288	5
XHO	19	0	3	72
HLD	19	72	2	72
HLD	19	144	1	72
TAP	19	216	0
TAP	19	288	2
TAP	19	288	7
BST	20	0	1
SCL	20	0	1	96	480	2
BRK	20	0	6
TTP	21	192	0	C	0	M1
TAP	21	288	0
TAP	21	288	7
HLD	22	0	2	96
TAP	22	96	3
TTP	22	192	2	E	0	M1
TTP	22	240	3	E	0	M1
TTP	22	288	4	E	0	M1
TAP	23	0	5
TAP	23	48	5
TAP	23	96	4
HLD	23	144	6	96
TAP	23	240	4
TAP	23	288	4
TAP	23	288	6
HLD	24	0	5	96
HLD	24	96	4	96
HLD	24	192	3	96
TAP	24	288	2
TAP	25	0	2
TAP	25	48	2
TAP	25	96	3
TAP	25	192	1
TAP	25	192	4
TAP	25	288	3
TAP	25	288	6
HLD	26	0	5	96
TAP	26	96	4
TTP	26	192	6	E	0	M1
TTP	26	240	5	E	0	M1
TTP	26	288	4	E	0	M1
TAP	27	0	2
TAP	27	48	2
TAP	27	96	3
HLD	27	144	1	96
TAP	27	240	3
TAP	27	288	1
TAP	27	288	3
TTP	28	0	2	E	0	M1
TTP	28	0	4	E	0	M1
TTP	28	96	0	E	0	M1
TTP	28	96	6	E	0	M1
TTP	28	192	1	E	0	M1
TTP	28	192	3	E	0	M1
TTP	28	288	5	E	0	M1
TTP	28	288	7	E	0	M1
XTP	29	0	3
XTP	29	0	4
XTP	29	48	3
XTP	29	48	4
XTP	29	96	3
XTP	29	96	4
BRK	29	144	2
BRK	29	144	5
TAP	29	288	0
TAP	29	288	7
HLD	30	0	6	96
TAP	30	96	7
TTP	30	192	4	E	0	M1
TTP	30	240	3	E	0	M1
TTP	30	288	2	E	0	M1
TAP	31	0	6
TAP	31	48	6
TAP	31	96	7
HLD	31	144	5	96
TAP	31	240	7
TAP	31	288	5
TAP	31	288	7
HLD	32	0	2	96
HLD	32	96	3	96
HLD	32	192	4	96
TAP	32	288	5
TAP	33	0	5
TAP	33	48	5
TAP	33	96	4
TAP	33	192	3
TAP	33	192	6
TAP	33	288	1
TAP	33	288	4
HLD	34	0	1	96
TAP	34	96	0
TTP	34	192	4	E	0	M1
TTP	34	240	5	E	0	M1
TTP	34	288	6	E	0	M1
TAP	35	0	1
TAP	35	48	1
TAP	35	96	0
HLD	35	144	2	96
TAP	35	240	0
TAP	35	288	0
TAP	35	288	2
TTP	36	0	7	E	0	M1
TTP	36	48	0	E	0	M1
TTP	36	96	1	E	0	M1
TTP	36	144	2	E	0	M1
TTP	36	192	3	E	0	M1
TTP	36	240	4	E	0	M1
TTP	36	288	5	E	0	M1
TTP	36	336	6	E	0	M1
XTP	37	0	0
XTP	37	0	7
XTP	37	48	0
XTP	37	48	7
XTP	37	96	0
XTP	37	96	7
BRK	37	144	1
BRK	37	144	6
TTP	37	288	0	C	1	M1
TTP	37	288	1	B	0	M1
TTP	37	288	6	B	0	M1
STR	38	0	0
SI_	38	0	0	96	48	4
TAP	38	96	7
TAP	38	192	6
STR	38	240	6
SI_	38	240	6	96	48	2
HLD	38	336	1	96
HLD	39	48	0	96
HLD	39	144	7	96
TAP	39	240	6
TAP	39	288	0
TAP	39	288	5
TAP	40	0	2
STR	40	0	7
SI_	40	0	7	96	48	3
TAP	40	96	0
TAP	40	192	1
STR	40	240	1
SI_	40	240	1	96	48	5
HLD	40	336	6	96
TAP	41	48	4
TAP	41	96	4
TAP	41	144	5
TAP	41	192	4
BRK	41	240	7
BRK	41	288	7
STR	42	0	1
SCR	42	0	1	96	48	4
TAP	42	0	5
TAP	42	96	7
STR	42	144	7
SI_	42	144	7	96	48	3
TAP	42	240	2
HLD	42	288	2	96
STR	43	0	6
SCL	43	0	6	96	48	3
TAP	43	96	0
STR	43	144	0
SI_	43	144	0	96	48	4
TAP	43	240	5
HLD	43	288	5	144
TAP	44	48	4
BRK	44	96	3
BRK	44	96	6
TAP	44	192	2
TAP	44	192	3
BRK	44	240	1
BRK	44	240	4
TAP	44	336	6
TAP	44	336	7
BRK	45	0	0
BRK	45	0	5
TAP	45	96	0
TAP	45	96	1
BRK	45	144	2
BRK	45	144	7
TAP	45	240	3
TAP	45	240	4
BRK	45	288	2
BRK	45	288	5
XTP	46	48	1
XTP	46	48	2
BRK	46	96	0
BRK	46	96	3
XTP	46	192	5
XTP	46	192	6
BRK	46	240	4
BRK	46	240	7
XTP	46	336	3
XTP	46	336	4
BRK	47	0	1
BST	47	0	6
SCR	47	0	6	96	192	5
BRK	47	288	0
XTP	48	0	3
XTP	48	0	7
TAP	48	96	2
TAP	48	120	3
TAP	48	144	2
TAP	48	192	4
TAP	48	216	3
TAP	48	240	4
TAP	48	288	2
TAP	48	312	3
TAP	48	336	2
TAP	49	0	1
TAP	49	0	4
TAP	49	96	5
TAP	49	120	4
TAP	49	144	5
TAP	49	192	3
TAP	49	216	4
TAP	49	240	3
TAP	49	288	5
TAP	49	312	4
TAP	49	336	5
TAP	50	0	3
TAP	50	0	6
TAP	50	96	1
TAP	50	120	0
TAP	50	144	1
TAP	50	192	7
TAP	50	216	0
TAP	50	240	7
TAP	50	288	1
TAP	50	312	0
TAP	50	336	1
STR	51	0	6
SI_	51	0	6	96	48	2
STR	51	96	0
SI_	51	96	0	96	48	4
TAP	51	192	5
TAP	51	240	5
BRK	51	288	2
BRK	51	288	6
XTP	52	0	3
XTP	52	0	7
TAP	52	48	6
TAP	52	96	5
TAP	52	120	4
TAP	52	144	5
TAP	52	192	3
TAP	52	216	4
TAP	52	240	3
TAP	52	288	5
TAP	52	312	4
TAP	52	336	5
TAP	53	0	3
TAP	53	0	6
TAP	53	48	5
TAP	53	96	2
TAP	53	120	3
TAP	53	144	2
TAP	53	192	4
TAP	53	216	3
TAP	53	240	4
TAP	53	288	2
TAP	53	312	3
TAP	53	336	2
TAP	54	0	1
TAP	54	0	4
TAP	54	48	0
TAP	54	96	6
TAP	54	120	7
TAP	54	144	6
TAP	54	192	0
TAP	54	216	7
TAP	54	240	0
TAP	54	288	6
TAP	54	312	7
TAP	54	336	6
STR	55	0	1
SI_	55	0	1	96	48	5
STR	55	96	7
SI_	55	96	7	96	48	3
TAP	55	192	1
TAP	55	240	1
BRK	55	288	0
BRK	55	288	4
HLD	56	0	4	48
HLD	56	0	6	48
TAP	56	72	4
TAP	56	72	6
TAP	56	144	3
TAP	56	144	5
TAP	56	192	2
TAP	56	216	3
TAP	56	264	1
TAP	56	264	4
TAP	56	336	0
TAP	57	0	0
TAP	57	48	1
TAP	57	96	2
TAP	57	120	3
TAP	57	144	2
TAP	57	192	5
TAP	57	216	4
TAP	57	240	5
TAP	57	288	2
TAP	57	312	3
TAP	57	336	2
TAP	58	0	1
TAP	58	0	4
TAP	58	48	5
TAP	58	96	6
TAP	58	120	7
TAP	58	144	6
TAP	58	192	1
TAP	58	216	0
TAP	58	240	1
TAP	58	288	6
TAP	58	312	7
TAP	58	336	6
TAP	59	0	0
TAP	59	0	5
TAP	59	48	4
STR	59	96	3
SCR	59	96	3	96	120	1
TAP	59	144	2
BRK	60	0	2
BRK	60	0	7
TAP	60	96	1
TAP	60	120	0
TAP	60	144	1
TAP	60	192	2
TAP	60	192	3
TAP	60	240	4
TAP	60	288	3
TAP	60	288	5
TAP	60	336	6
TAP	61	0	0
TAP	61	24	7
TAP	61	48	0
TAP	61	96	5
TAP	61	120	4
TAP	61	144	5
TAP	61	192	3
TAP	61	192	6
TAP	61	240	2
TAP	61	288	1
TAP	61	288	4
TAP	61	336	5
XHO	62	0	3	48
XHO	62	0	5	48
XHO	62	72	2	48
XHO	62	72	4	48
XHO	62	144	1	96
XHO	62	144	3	96
XTP	62	288	0
XTP	62	288	7
BRK	62	336	1
XHO	62	336	6	336
TAP	63	48	3
TAP	63	96	3
TAP	63	144	3
TAP	63	192	3
TAP	63	240	3
TTP	63	288	0	C	1	M1
XHO	64	0	0	192
XHO	64	0	7	192
TAP	64	288	2
TAP	64	288	3
XHO	64	336	1	240
XHO	64	336	4	240
XTP	65	240	1
XTP	65	240	4
XTP	65	312	3
XTP	65	312	6
XHO	66	0	0	192
XHO	66	0	7	192
XTP	66	264	5
XTP	66	288	4
XHO	66	336	3	144
XHO	66	336	6	144
XTP	67	144	3
XTP	67	144	6
XTP	67	240	1
XTP	67	240	4
XTP	67	288	2
XTP	67	312	3
XHO	68	0	1	192
XTP	68	0	4
TAP	68	192	4
TAP	68	288	4
TAP	68	288	5
XTP	68	336	3
XHO	68	336	6	192
TAP	69	48	3
TAP	69	144	3
TAP	69	192	4
TAP	69	240	5
TAP	69	288	4
TAP	69	336	3
XHO	70	0	2	192
XTP	70	0	4
TAP	70	192	4
XTP	70	264	3
XTP	70	288	4
XTP	70	336	1
XHO	70	336	6	72
HLD	71	24	5	72
HLD	71	96	4	72
HLD	71	168	3	72
HLD	71	240	2	72
TAP	71	312	1
XTP	72	0	0
TAP	72	0	7
TAP	72	48	0
TAP	72	96	1
TAP	72	144	1
TAP	72	192	2
TAP	72	240	2
TAP	72	288	3
TAP	72	336	3
TAP	73	0	4
TAP	73	48	4
TAP	73	96	5
TAP	73	144	5
STR	73	192	6
SI_	73	192	6	96	48	3
TAP	74	0	0
XTP	74	0	7
TAP	74	48	7
TAP	74	96	6
TAP	74	144	6
TAP	74	192	5
TAP	74	240	5
TAP	74	288	4
TAP	74	336	4
TAP	75	0	3
TAP	75	48	3
TAP	75	96	2
TAP	75	144	2
STR	75	192	1
SI_	75	192	1	96	48	4
TAP	76	0	2
TAP	76	24	3
TAP	76	48	2
TAP	76	72	3
TAP	76	96	2
TAP	76	144	0
TAP	76	144	4
TAP	76	192	5
TAP	76	216	4
TAP	76	240	5
TAP	76	264	4
TAP	76	288	5
TAP	76	336	3
TAP	76	336	7
TAP	77	0	6
TAP	77	24	7
TAP	77	48	6
TAP	77	72	7
TAP	77	96	6
TAP	77	144	0
TAP	77	144	4
TAP	77	192	1
TAP	77	216	0
TAP	77	240	1
TAP	77	264	0
TAP	77	288	1
TAP	77	336	3
TAP	77	336	7
BST	78	0	0
SSL	78	0	0	96	192	4
XTP	79	0	3
XTP	79	0	6
XTP	79	96	1
XTP	79	96	4
XTP	79	192	0
XTP	79	192	7
BRK	79	288	1
BRK	79	288	6
STR	80	0	1
SI_	80	0	1	96	48	3
TAP	80	48	1
STR	80	96	0
SI_	80	96	0	96	48	4
TAP	80	144	0
TAP	80	192	2
TAP	80	240	2
TAP	80	288	1
TAP	80	288	3
TAP	80	336	2
STR	81	0	6
SI_	81	0	6	96	48	4
TAP	81	48	6
STR	81	96	7
SI_	81	96	7	96	48	3
TAP	81	144	7
BRK	81	192	5
BRK	81	240	5
BRK	81	288	4
BRK	81	288	5
HLD	82	0	2	96
HLD	82	0	3	96
XTP	82	144	1
XTP	82	144	4
STR	82	192	0
SI_	82	192	0	96	48	4
TAP	82	240	0
STR	82	288	7
SI_	82	288	7	96	48	3
TAP	82	336	7
TAP	83	0	1
TAP	83	48	1
TAP	83	96	0
TAP	83	96	2
TAP	83	144	1
STR	83	192	2
SCR	83	192	2	96	48	5
BRK	83	288	7
HLD	84	0	6	48
TAP	84	48	7
TAP	84	96	0
TAP	84	96	5
TAP	84	144	1
HLD	84	192	2	48
TAP	84	240	3
TAP	84	288	1
TAP	84	288	4
TAP	84	336	5
HLD	85	0	6	48
HLD	85	48	7	48
HLD	85	96	0	48
TAP	85	144	1
XHO	85	192	2	48
XHO	85	192	3	48
XHO	85	264	1	48
XHO	85	264	4	48
TAP	85	336	0
TAP	85	336	5
XTP	86	0	6
TAP	86	32	6
TAP	86	64	6
XTP	86	96	4
TAP	86	128	4
TAP	86	160	4
XTP	86	192	3
TAP	86	224	3
TAP	86	256	3
XTP	86	288	1
TAP	86	320	1
TAP	86	352	1
XTP	87	0	7
TAP	87	32	7
TAP	87	64	7
XTP	87	96	0
TAP	87	128	0
TAP	87	160	0
XHO	87	192	4	96
XHO	87	288	3	96
TAP	88	0	4
TTP	88	96	0	C	1	M1
TAP	88	192	6
TAP	88	192	7
TAP	88	240	6
TAP	88	288	0
TAP	88	288	1
TAP	88	336	1
STR	89	0	5
SI_	89	0	5	96	48	7
TAP	89	48	5
STR	89	96	1
SI_	89	96	1	96	48	3
TAP	89	144	1
TAP	89	192	4
BRK	89	288	2
BRK	89	288	6
STR	90	0	0
SI_	90	0	0	96	48	3
STR	90	96	7
SI_	90	96	7	96	48	4
STR	90	192	0
SI_	90	192	0	96	48	2
STR	90	288	7
SI_	90	288	7	96	48	3
STR	91	0	0
SI_	91	0	0	96	48	4
STR	91	96	7
SI_	91	96	7	96	48	5
TAP	91	192	3
TAP	91	240	3
BRK	91	288	1
BRK	91	288	6
XTP	92	0	0
XTP	92	0	1
XTP	92	48	0
XTP	92	48	1
TTP	92	96	0	C	1	M1
TTP	92	96	2	B	0	M1
TTP	92	96	3	B	0	M1
XTP	92	192	6
XTP	92	192	7
XTP	92	240	6
XTP	92	240	7
TTP	92	288	0	C	1	M1
TTP	92	288	4	B	0	M1
TTP	92	288	5	B	0	M1
XHO	93	0	0	48
XHO	93	0	1	48
XHO	93	72	2	48
XHO	93	72	7	48
TAP	93	144	3
TAP	93	144	6
TAP	93	192	4
TAP	93	192	5
BRK	93	240	7
BRK	93	288	7
TTP	94	0	6	E	0	M1
TTP	94	48	5	E	0	M1
TTP	94	96	0	C	0	M1
TTP	94	144	3	E	0	M1
TTP	94	192	2	E	0	M1
TAP	94	288	0
TAP	94	288	7
XHO	95	0	1	72
XTP	95	0	3
TAP	95	72	0
TAP	95	144	2
TAP	95	144	7
XTP	95	192	4
XHO	95	192	6	72
TAP	95	264	7
TAP	95	336	0
TAP	95	336	5
XHO	96	0	1	72
TAP	96	0	4
XHO	96	72	3	72
XHO	96	144	4	72
XHO	96	216	6	72
TAP	96	288	7
TAP	96	336	7
XHO	97	0	1	48
XHO	97	0	3	48
XHO	97	72	2	48
XHO	97	72	4	48
XHO	97	144	3	48
XHO	97	144	5	48
XHO	97	216	4	48
XHO	97	216	6	48
TAP	97	288	3
TAP	97	288	7
XHO	98	0	4	48
XHO	98	0	6	48
XHO	98	72	3	48
XHO	98	72	5	48
XHO	98	144	2	48
XHO	98	144	4	48
XHO	98	216	1	48
XHO	98	216	3	48
TAP	98	288	0
TAP	98	288	4
XHO	99	0	1	48
XHO	99	0	4	48
XHO	99	72	3	48
XHO	99	72	6	48
XHO	99	144	1	48
XHO	99	144	4	48
XHO	99	216	3	48
XHO	99	216	6	48
TAP	99	288	0
TAP	99	288	5
XHO	100	0	3	48
XHO	100	0	6	48
XHO	100	72	1	48
XHO	100	72	4	48
XHO	100	144	3	48
XHO	100	144	6	48
XHO	100	216	1	48
XHO	100	216	4	48
TAP	100	288	2
TAP	100	288	7
BRK	101	0	0
BST	101	0	4
SCR	101	0	4	96	576	3
XST	103	0	1
SCR	103	0	1	96	48	4
TAP	103	24	0
TAP	103	48	1
TAP	103	72	0
XST	103	192	6
SCL	103	192	6	96	48	3
TAP	103	216	7
TAP	103	240	6
TAP	103	264	7
XTP	104	0	2
TAP	104	24	3
TAP	104	48	2
XTP	104	96	5
TAP	104	120	4
TAP	104	144	5
XTP	104	192	0
XTP	104	216	1
XTP	104	240	2
XTP	104	264	3
XTP	104	288	4
XTP	104	312	5
XTP	104	336	6
XTP	104	360	7
BRK	105	0	0
BRK	105	0	4

T_REC_TAP	390
T_REC_BRK	50
T_REC_XTP	98
T_REC_HLD	43
T_REC_XHO	85
T_REC_STR	37
T_REC_BST	4
T_REC_XST	2
T_REC_TTP	45
T_REC_THO	1
T_REC_SLD	43
T_REC_ALL	798
T_NUM_TAP	572
T_NUM_BRK	54
T_NUM_HLD	129
T_NUM_SLD	43
T_NUM_ALL	798
T_JUDGE_TAP	626
T_JUDGE_HLD	277
T_JUDGE_SLD	43
T_JUDGE_ALL	946
TTM_EACHPAIRS	161
TTM_SCR_TAP	286000
TTM_SCR_BRK	140400
TTM_SCR_HLD	129000
TTM_SCR_SLD	64500
TTM_SCR_ALL	619900
TTM_SCR_S	596100
TTM_SCR_SS	614500
TTM_RAT_ACV	10087

