VERSION	0.00.00	1.03.00
FES_MODE	0
BPM_DEF	154.000	154.000	154.000	154.000
MET_DEF	4	4
RESOLUTION	384
CLK_DEF	384
COMPATIBLE_CODE	MA2

BPM	0	0	154.000
MET	0	0	4	4

XST	2	0	3
SI_	2	0	3	96	288	0
TAP	3	192	7
XST	4	0	7
SI_	4	0	7	96	288	4
TAP	5	192	3
XST	6	0	3
SCL	6	0	3	96	288	0
XTP	7	192	0
XTP	7	192	7
XHO	8	0	1	192
XHO	8	0	6	192
XTP	9	0	2
XTP	9	0	3
XTP	9	96	2
XTP	9	96	3
XTP	9	192	4
XTP	9	192	5
XTP	9	288	4
XTP	9	288	5
BRK	10	0	1
BRK	10	0	6
TAP	10	96	1
TAP	10	96	6
TAP	10	192	2
TAP	10	288	3
TAP	11	0	4
TAP	11	96	5
TAP	11	192	6
TAP	11	192	7
TAP	11	288	6
TAP	11	288	7
TAP	12	0	0
TAP	12	0	5
TAP	12	96	0
TAP	12	96	5
TAP	12	192	1
TAP	12	192	6
TAP	12	288	1
TAP	12	288	6
TAP	13	0	2
TAP	13	0	7
TAP	13	96	2
TAP	13	96	7
TAP	13	192	0
TAP	13	192	1
XTP	14	0	1
XTP	14	0	6
TAP	14	96	1
TAP	14	96	6
TAP	14	192	5
TAP	14	288	4
TAP	15	0	2
TAP	15	0	3
TAP	15	96	2
TAP	15	96	3
TAP	15	192	1
TAP	15	192	4
TAP	15	288	1
TAP	15	288	4
XST	16	0	0
SI_	16	0	0	96	192	4
STR	17	0	5
SI_	17	0	5	96	192	2
STR	18	0	1
SI_	18	0	1	96	192	5
STR	19	0	6
SCL	19	0	6	96	192	3
THO	20	0	0	384	C	0	L1
XTP	21	192	0
XTP	21	192	7
HLD	22	0	1	192
HLD	22	192	2	192
TAP	23	0	3
TAP	23	96	3
TAP	23	192	3
TAP	23	192	4
HLD	24	0	6	192
HLD	24	192	5	192
TAP	25	0	4
TAP	25	96	4
TAP	25	192	3
TAP	25	192	4
HLD	26	0	1	192
HLD	26	192	2	192
TAP	27	0	3
TAP	27	96	3
TAP	27	192	2
TAP	27	192	4
TAP	28	0	5
TAP	28	96	4
TAP	28	192	2
TAP	28	288	3
XTP	29	0	4
XTP	29	48	4
XTP	29	96	3
XTP	29	144	3
XTP	29	240	2
XTP	29	240	5
XTP	29	288	2
XTP	29	288	5
TAP	30	0	2
TAP	30	96	2
TAP	30	96	3
TAP	30	192	5
TAP	30	288	4
TAP	30	288	5
TAP	31	0	3
TAP	31	96	2
TAP	31	192	1
TAP	31	192	4
TAP	31	288	1
TAP	31	288	4
TAP	32	0	5
TAP	32	96	4
TAP	32	96	5
TAP	32	192	2
TAP	32	288	2
TAP	32	288	3
TAP	33	0	4
TAP	33	96	5
TAP	33	192	6
TAP	33	192	7
TAP	34	0	1
TAP	34	96	0
TAP	34	96	1
TAP	34	192	6
TAP	34	288	6
TAP	34	288	7
TAP	35	0	0
TAP	35	96	1
TAP	35	192	2
TAP	35	192	7
TAP	36	0	4
TAP	36	96	4
TAP	36	192	3
TAP	36	288	3
XTP	37	0	3
XTP	37	0	4
XTP	37	96	2
XTP	37	96	5
XTP	37	144	2
XTP	37	144	5
XTP	37	240	1
XTP	37	240	6
BRK	37	288	1
BRK	37	288	6
STR	38	0	0
SI_	38	0	0	96	192	4
TAP	39	0	5
TAP	39	96	5
TAP	39	192	6
TAP	39	288	6
STR	40	0	7
SI_	40	0	7	96	192	3
TAP	41	0	2
TAP	41	96	2
XTP	41	192	1
XTP	41	192	3
STR	42	0	4
SI_	42	0	4	96	192	7
STR	43	0	0
SI_	43	0	0	96	192	3
STR	44	0	4
SCR	44	0	4	96	192	7
STR	45	0	0
SCR	45	0	0	96	192	3
THO	46	0	0	384	C	1	L1
HLD	48	0	1	96
TAP	48	96	0
HLD	48	192	6	96
TAP	48	288	7
TAP	49	0	4
TAP	49	0	5
TAP	49	96	4
TAP	49	96	5
TAP	49	192	2
TAP	49	192	3
TAP	49	288	2
TAP	49	288	3
HLD	50	0	5	96
TAP	50	96	4
HLD	50	192	2	96
TAP	50	288	3
TAP	51	0	4
TAP	51	0	5
TAP	51	96	4
TAP	51	96	5
TAP	51	192	3
TAP	51	192	6
TAP	52	0	5
TAP	52	48	5
TAP	52	96	4
TAP	52	192	3
TAP	52	192	6
TAP	52	288	3
TAP	52	288	6
TAP	53	0	2
TAP	53	48	2
TAP	53	96	3
TAP	53	192	1
TAP	53	192	4
TAP	53	288	1
TAP	53	288	4
STR	54	0	0
SI_	54	0	0	96	192	3
STR	55	0	4
SI_	55	0	4	96	192	7
HLD	56	0	1	96
TAP	56	96	0
HLD	56	192	6	96
TAP	56	288	7
TAP	57	0	4
TAP	57	0	5
TAP	57	96	4
TAP	57	96	5
TAP	57	192	3
TAP	57	192	4
TAP	57	288	3
TAP	57	288	4
HLD	58	0	1	96
TAP	58	96	3
HLD	58	192	6	96
TAP	58	288	4
TAP	59	0	3
TAP	59	0	4
TAP	59	96	2
TAP	59	96	5
XTP	59	192	1
XTP	59	192	6
TAP	60	0	1
TAP	60	48	1
TAP	60	96	0
TAP	60	192	2
TAP	60	192	7
TAP	60	288	2
TAP	60	288	7
TAP	61	0	6
TAP	61	48	6
TAP	61	96	7
TAP	61	192	0
TAP	61	192	5
TAP	61	288	0
TAP	61	288	5
TAP	62	0	6
TAP	62	0	7
TAP	62	96	0
TAP	62	96	7
TAP	62	192	0
TAP	62	192	1
XTP	62	288	2
XTP	62	288	7
BRK	62	336	2
BRK	62	336	7
XST	64	0	0
SI_	64	0	0	96	192	5
XST	64	0	1
SI_	64	0	1	96	192	4
TAP	65	192	3
TAP	65	192	6
STR	66	0	6
SI_	66	0	6	96	192	3
STR	66	0	7
SI_	66	0	7	96	192	2
TAP	67	192	1
TAP	67	192	4
STR	68	0	2
SCL	68	0	2	96	192	7
STR	68	0	3
SCR	68	0	3	96	192	6
XTP	69	192	0
XTP	69	192	5
TAP	70	0	4
TAP	70	96	3
TAP	70	192	2
STR	70	288	1
SUR	70	288	1	96	288	3
TTP	72	0	4	B	0	L1
TTP	72	0	5	E	0	L1
TTP	72	192	3	B	0	L1
TTP	72	192	3	E	0	L1
TTP	73	0	5	B	0	L1
TTP	73	0	6	B	0	L1
TTP	73	192	1	B	0	L1
TTP	73	192	2	B	0	L1
TTP	74	0	6	E	0	L1
TTP	74	96	5	B	0	L1
TTP	74	192	4	B	0	L1
TTP	75	0	2	E	0	L1
TTP	75	96	2	B	0	L1
TTP	75	192	3	B	0	L1
TTP	76	0	5	E	0	L1
TTP	76	96	6	E	0	L1
TTP	76	192	7	E	0	L1
TTP	76	288	0	E	0	L1
TTP	77	0	1	E	0	L1
TTP	77	96	2	E	0	L1
TTP	77	192	3	E	0	L1
TTP	77	192	5	E	0	L1
THO	78	0	0	192	C	0	L1
XTP	79	0	7
XTP	79	96	7
XTP	79	192	0
XTP	79	288	0
BRK	80	0	1
BRK	80	0	6
TAP	80	96	2
TAP	80	96	3
TAP	80	192	1
TAP	80	192	6
TAP	80	288	4
TAP	80	288	5
TAP	81	0	1
TAP	81	0	6
TAP	81	96	2
TAP	81	96	3
XTP	81	192	0
XTP	81	192	7
XTP	81	240	0
XTP	81	240	7
XHO	81	288	0	96
XHO	81	288	7	96
TAP	82	96	1
TAP	82	96	6
XTP	82	144	1
XTP	82	144	6
TAP	82	240	2
TAP	82	240	5
TAP	82	288	2
TAP	82	288	5
TAP	83	0	4
TAP	83	96	5
XTP	83	192	3
XTP	83	192	6
XTP	84	0	2
XTP	84	0	5
TAP	84	96	0
TAP	84	96	1
TAP	84	192	2
TAP	84	192	5
TAP	84	288	6
TAP	84	288	7
TAP	85	0	2
TAP	85	0	5
TAP	85	96	0
TAP	85	96	1
XTP	85	192	2
XTP	85	192	7
XTP	85	288	2
XTP	85	288	7
HLD	86	0	1	192
HLD	86	192	0	192
HLD	87	0	7	192
XTP	87	192	6
HLD	88	0	4	96
HLD	88	0	5	96
TAP	88	192	2
TAP	88	192	3
TAP	88	288	1
TAP	88	288	4
TAP	89	0	4
TAP	89	0	5
TAP	89	96	3
TAP	89	96	6
XTP	89	192	3
XTP	89	192	4
XTP	89	240	3
XTP	89	240	4
XTP	89	288	3
XTP	89	288	4
XTP	90	0	2
XTP	90	96	0
XTP	90	192	6
XTP	90	288	4
XTP	91	0	1
XTP	91	96	7
XTP	91	192	4
XTP	91	192	5
XTP	91	288	2
XTP	91	288	3
HLD	92	0	1	96
HLD	92	0	3	96
HLD	92	192	4	96
HLD	92	192	6	96
HLD	93	0	3	96
HLD	93	0	4	96
TAP	93	192	3
TAP	93	192	4
STR	93	288	2
SLL	93	288	2	96	288	3
STR	93	288	5
SLR	93	288	5	96	288	4
THO	95	0	0	384	C	1	L1
STR	97	0	7
SI_	97	0	7	96	192	3
STR	98	0	2
SI_	98	0	2	96	192	7
STR	99	0	6
SI_	99	0	6	96	192	2
STR	100	0	1
SI_	100	0	1	96	192	4
XHO	101	0	3	384
XHO	101	0	5	384
TAP	102	192	3
TAP	102	192	4
TAP	102	288	3
TAP	102	288	4
TAP	103	0	2
TAP	103	48	2
TAP	103	96	4
TAP	103	144	4
TAP	103	192	3
TAP	103	240	3
TAP	103	288	5
TAP	103	336	5
TAP	104	0	6
TAP	104	0	7
TAP	104	48	6
TAP	104	48	7
TAP	104	96	6
TAP	104	96	7
TAP	104	192	0
TAP	104	192	1
TAP	104	240	0
TAP	104	240	1
TAP	104	288	0
TAP	104	288	1
BRK	105	0	2
BRK	105	0	7

T_REC_TAP	233
T_REC_BRK	10
T_REC_XTP	73
T_REC_HLD	25
T_REC_XHO	6
T_REC_STR	22
T_REC_BST	0
T_REC_XST	6
T_REC_TTP	22
T_REC_THO	4
T_REC_SLD	28
T_REC_ALL	429
T_NUM_TAP	356
T_NUM_BRK	10
T_NUM_HLD	35
T_NUM_SLD	28
T_NUM_ALL	429
T_JUDGE_TAP	366
T_JUDGE_HLD	124
T_JUDGE_SLD	28
T_JUDGE_ALL	518
TTM_EACHPAIRS	125
TTM_SCR_TAP	178000
TTM_SCR_BRK	26000
TTM_SCR_HLD	35000
TTM_SCR_SLD	42000
TTM_SCR_ALL	281000
TTM_SCR_S	271600
TTM_SCR_SS	280000
TTM_RAT_ACV	10035

