VERSION	0.00.00	1.03.00
FES_MODE	0
BPM_DEF	154.000	154.000	154.000	154.000
MET_DEF	4	4
RESOLUTION	384
CLK_DEF	384
COMPATIBLE_CODE	MA2

BPM	0	0	154.000
MET	0	0	4	4

HLD	2	0	0	336
HLD	4	0	7	336
HLD	6	0	0	336
HLD	6	0	7	336
XTP	8	0	0
XTP	8	0	7
TAP	9	0	1
TAP	9	0	6
TAP	9	96	1
TAP	9	96	6
TAP	9	192	1
TAP	9	192	6
TAP	10	0	7
TAP	10	192	7
TAP	11	0	6
TAP	11	192	6
TAP	12	0	5
TAP	12	192	5
TAP	13	0	3
TAP	13	0	4
TAP	13	192	3
TAP	13	192	4
TAP	14	0	2
TAP	14	192	2
TAP	15	0	1
TAP	15	192	1
HLD	16	0	0	192
HLD	16	0	1	192
HLD	17	0	6	192
HLD	17	0	7	192
HLD	18	0	4	192
HLD	18	0	5	192
HLD	19	0	2	192
HLD	19	0	3	192
BRK	20	0	0
BRK	20	0	1
STR	22	0	6
SI_	22	0	6	96	288	2
STR	24	0	0
SI_	24	0	0	96	288	4
STR	26	0	7
SI_	26	0	7	96	288	3
STR	28	0	1
SI_	28	0	1	96	288	5
TTP	30	0	6	E	0	L1
TTP	30	192	5	E	0	L1
TTP	31	0	4	B	0	L1
TTP	32	0	2	E	0	L1
TTP	32	192	3	E	0	L1
TTP	33	0	3	B	0	L1
TTP	34	0	4	E	0	L1
TTP	34	192	3	E	0	L1
TTP	34	192	5	E	0	L1
TTP	35	0	1	B	0	L1
TTP	35	0	6	B	0	L1
THO	36	0	0	384	C	1	L1
TAP	38	0	0
TAP	38	96	0
TAP	38	192	0
TAP	39	0	1
TAP	39	96	1
TAP	39	192	1
TAP	40	0	2
TAP	40	96	2
TAP	40	192	2
TAP	41	0	3
TAP	41	96	3
TAP	41	192	3
TAP	41	192	4
TAP	42	0	4
TAP	42	96	4
TAP	42	192	4
TAP	43	0	5
TAP	43	96	5
TAP	43	192	5
TAP	44	0	6
TAP	44	96	6
TAP	44	192	6
TAP	45	0	7
TAP	45	96	7
TAP	45	192	0
TAP	45	192	7
XTP	46	0	0
XTP	46	0	7
XTP	46	96	0
XTP	46	96	7
XTP	46	192	0
XTP	46	192	7
BRK	47	0	1
BRK	47	0	6
HLD	48	0	7	192
HLD	49	0	6	192
TAP	50	0	5
TAP	50	96	5
TAP	50	192	4
TAP	50	288	4
HLD	51	0	3	192
HLD	51	0	4	192
HLD	52	0	3	192
HLD	53	0	2	192
TAP	54	0	1
TAP	54	96	1
TAP	54	192	0
TAP	54	288	0
HLD	55	0	0	192
HLD	55	0	7	192
HLD	56	0	0	192
HLD	57	0	1	192
TAP	58	0	2
TAP	58	96	2
TAP	58	192	3
TAP	58	288	3
TAP	59	0	3
TAP	59	0	4
TAP	59	192	3
TAP	59	192	4
TAP	60	0	5
TAP	60	96	5
TAP	60	192	5
TAP	61	0	6
TAP	61	96	6
TAP	61	192	6
STR	62	0	7
SI_	62	0	7	96	288	3
HLD	64	0	2	336
HLD	64	0	4	336
HLD	66	0	3	336
HLD	66	0	5	336
HLD	68	0	2	336
HLD	68	0	4	336
HLD	70	0	3	336
HLD	70	0	5	336
TAP	72	0	4
TAP	72	96	4
TAP	72	192	5
TAP	72	288	5
TAP	73	0	6
TAP	73	96	6
TAP	73	192	0
TAP	73	192	7
TAP	74	0	0
TAP	74	96	0
TAP	74	192	1
TAP	74	288	1
TAP	75	0	2
TAP	75	96	2
TAP	75	192	3
TAP	75	192	4
TTP	76	0	4	E	0	L1
TTP	76	192	3	E	0	L1
TTP	76	192	5	E	0	L1
TTP	77	0	2	B	0	L1
TTP	77	0	5	B	0	L1
TTP	77	192	1	B	0	L1
TTP	77	192	6	B	0	L1
THO	78	0	0	384	C	1	L1
TAP	80	0	0
TAP	80	96	0
TAP	80	192	1
TAP	80	288	1
TAP	81	0	2
TAP	81	96	2
TAP	81	192	3
TAP	81	288	3
TAP	82	0	4
TAP	82	96	4
TAP	82	192	5
TAP	82	288	5
TAP	83	0	6
TAP	83	96	6
BRK	83	192	7
TAP	84	0	7
TAP	84	96	7
TAP	84	192	6
TAP	84	288	6
TAP	85	0	5
TAP	85	96	5
TAP	85	192	4
TAP	85	288	4
TAP	86	0	3
TAP	86	96	3
TAP	86	192	2
TAP	86	288	2
TAP	87	0	1
TAP	87	96	1
BRK	87	192	0
TAP	88	0	1
TAP	88	192	0
TAP	88	192	1
TAP	89	0	2
TAP	89	192	2
TAP	89	192	3
TAP	90	0	4
TAP	90	96	4
TAP	90	192	3
TAP	90	288	3
TAP	91	0	3
TAP	91	0	4
TAP	91	96	3
TAP	91	96	4
TAP	91	192	3
TAP	91	192	4
TAP	92	0	5
TAP	92	192	4
TAP	92	192	5
TAP	93	0	6
TAP	93	192	6
TAP	93	192	7
TAP	94	0	0
TAP	94	96	0
TAP	94	192	7
TAP	94	288	7
XTP	95	0	0
XTP	95	0	7
XTP	95	192	1
XTP	95	192	6
XTP	96	0	2
XTP	96	0	5
XTP	96	192	3
XTP	96	192	4
STR	97	0	4
SI_	97	0	4	96	288	7
STR	99	0	3
SI_	99	0	3	96	288	0
HLD	101	0	7	384
TAP	103	0	0
TAP	103	96	1
TAP	103	192	2
TAP	103	288	3
TAP	104	0	4
TAP	104	96	5
TAP	104	192	6
TAP	104	288	7
BRK	105	0	0

T_REC_TAP	146
T_REC_BRK	7
T_REC_XTP	16
T_REC_HLD	31
T_REC_XHO	0
T_REC_STR	7
T_REC_BST	0
T_REC_XST	0
T_REC_TTP	18
T_REC_THO	2
T_REC_SLD	7
T_REC_ALL	234
T_NUM_TAP	187
T_NUM_BRK	7
T_NUM_HLD	33
T_NUM_SLD	7
T_NUM_ALL	234
T_JUDGE_TAP	194
T_JUDGE_HLD	180
T_JUDGE_SLD	7
T_JUDGE_ALL	381
TTM_EACHPAIRS	39
TTM_SCR_TAP	93500
TTM_SCR_BRK	18200
TTM_SCR_HLD	33000
TTM_SCR_SLD	10500
TTM_SCR_ALL	155200
TTM_SCR_S	149900
TTM_SCR_SS	154500
TTM_RAT_ACV	10045

