VERSION	0.00.00	1.03.00
FES_MODE	0
BPM_DEF	 98.000	 98.000	 98.000	 98.000
MET_DEF	4	4
RESOLUTION	384
CLK_DEF	384
COMPATIBLE_CODE	MA2

BPM	0	0	 98.000
MET	0	0	4	4

TAP	1	272	3
TAP	1	288	4
TAP	1	320	4
TAP	1	336	3
STR	2	0	2
SXR	2	0	2	96	96	3
TAP	2	48	3
TAP	2	96	4
STR	2	192	5
SXL	2	192	5	96	96	4
TAP	2	240	4
TAP	2	288	3
STR	3	0	2
SXR	3	0	2	96	96	3
TAP	3	48	3
TAP	3	96	4
TAP	3	192	5
TAP	3	240	4
TTP	3	288	2	B	0	M1
TTP	3	288	3	B	0	M1
TTP	3	288	4	B	0	M1
TTP	3	288	4	E	0	M1
TTP	3	288	5	B	0	M1
STR	4	0	6
SXR	4	0	6	96	96	7
TAP	4	48	7
TAP	4	96	0
STR	4	192	1
SXL	4	192	1	96	96	0
TAP	4	240	0
TAP	4	288	7
TAP	5	0	6
TAP	5	48	7
TAP	5	96	0
TAP	5	96	5
TAP	5	144	1
TAP	5	192	2
TAP	5	192	7
TAP	5	224	0
TAP	5	240	7
TAP	5	256	0
TAP	5	272	7
BRK	5	288	1
BRK	5	288	6
TAP	6	0	3
HLD	6	0	5	192
TTP	6	48	5	E	0	M1
TTP	6	96	3	E	0	M1
TTP	6	144	0	C	0	M1
HLD	6	192	1	192
TTP	6	240	3	E	0	M1
TTP	6	288	5	E	0	M1
TTP	6	336	0	C	0	M1
HLD	7	0	6	144
TAP	7	48	4
TAP	7	96	3
TAP	7	144	5
TAP	7	176	4
TAP	7	176	6
TAP	7	224	3
TAP	7	224	4
HLD	7	272	1	64
TAP	7	272	3
TAP	7	336	7
TAP	8	0	0
TAP	8	16	7
TAP	8	32	0
XTP	8	48	1
XTP	8	48	6
TTP	8	96	5	E	0	M1
TTP	8	144	0	C	0	M1
HLD	8	192	6	192
TTP	8	240	5	E	0	M1
TTP	8	288	3	E	0	M1
TTP	8	336	0	C	0	M1
HLD	9	0	0	192
TTP	9	48	3	E	0	M1
TTP	9	96	5	E	0	M1
TTP	9	144	0	C	0	M1
TAP	9	192	6
TAP	9	240	7
TAP	9	288	0
TAP	9	304	7
TAP	9	320	0
TAP	9	336	7
XTP	9	368	1
XTP	9	368	6
TTP	10	48	0	E	0	M1
TTP	10	96	5	E	0	M1
TTP	10	144	0	C	0	M1
HLD	10	192	1	192
TTP	10	240	0	E	0	M1
TTP	10	288	3	E	0	M1
TTP	10	336	0	C	0	M1
HLD	11	0	7	144
TTP	11	48	0	E	0	M1
TTP	11	96	5	E	0	M1
TTP	11	144	0	C	0	M1
TTP	11	192	1	E	0	M1
TTP	11	208	1	B	0	M1
TTP	11	224	2	B	0	M1
TTP	11	240	7	E	0	M1
TTP	11	256	6	B	0	M1
TTP	11	272	5	B	0	M1
TTP	11	288	3	E	0	M1
TTP	11	304	3	B	0	M1
TTP	11	320	4	B	0	M1
TTP	11	336	0	C	0	M1
XHO	12	0	0	192
TTP	12	48	0	E	0	M1
TTP	12	96	3	E	0	M1
TTP	12	144	0	C	0	M1
HLD	12	192	7	192
TTP	12	240	0	E	0	M1
TTP	12	288	5	E	0	M1
TTP	12	336	0	C	0	M1
HLD	13	0	0	48
HLD	13	48	2	48
HLD	13	96	4	48
TAP	13	144	5
BRK	13	176	2
BRK	13	176	6
TAP	13	224	0
TAP	13	240	7
TAP	13	288	1
TAP	13	288	6
TAP	13	336	2
TAP	13	336	5
TAP	14	0	3
STR	14	0	4
SCR	14	0	4	96	48	7
TTP	14	96	5	B	0	M1
TTP	14	96	6	B	0	M1
STR	14	192	3
SCL	14	192	3	96	48	0
TAP	14	240	3
TTP	14	288	1	B	0	M1
TTP	14	288	2	B	0	M1
STR	15	0	4
SCR	15	0	4	96	48	7
TTP	15	96	5	B	0	M1
TTP	15	96	6	B	0	M1
STR	15	192	3
SCL	15	192	3	96	48	0
TAP	15	240	3
TTP	15	288	1	B	0	M1
TTP	15	288	2	B	0	M1
STR	16	0	7
SCL	16	0	7	96	48	4
TTP	16	96	5	B	0	M1
TTP	16	96	6	B	0	M1
STR	16	192	0
SCR	16	192	0	96	48	3
TAP	16	240	0
TTP	16	288	1	B	0	M1
TTP	16	288	2	B	0	M1
STR	17	0	7
SI_	17	0	7	96	48	3
TAP	17	48	7
STR	17	96	2
SI_	17	96	2	96	48	6
TAP	17	144	2
STR	17	192	4
SI_	17	192	4	96	48	7
TAP	17	240	4
TTP	17	288	0	C	0	M1
TTP	17	288	2	B	0	M1
TAP	18	0	0
TAP	18	0	1
TAP	18	48	1
TAP	18	48	2
TAP	18	96	2
TAP	18	96	3
TAP	18	144	3
TAP	18	144	4
TAP	18	192	6
TAP	18	192	7
TAP	18	240	5
TAP	18	240	6
TAP	18	288	4
TAP	18	288	5
TAP	18	336	3
TAP	18	336	4
TAP	19	0	2
TAP	19	16	3
TAP	19	32	2
TAP	19	48	5
TAP	19	64	4
TAP	19	80	5
TAP	19	96	2
TAP	19	112	3
TAP	19	128	1
TAP	19	144	5
TAP	19	160	4
TAP	19	176	6
TAP	19	192	2
TAP	19	208	3
TAP	19	224	0
TAP	19	240	5
TAP	19	256	4
BRK	19	272	3
BRK	19	272	7
TAP	19	320	0
TAP	19	336	7
STR	19	368	2
SCR	19	368	2	96	32	5
TAP	20	0	3
TAP	20	32	1
TAP	20	48	0
TAP	20	80	2
TAP	20	80	6
TAP	20	128	7
TAP	20	144	0
STR	20	176	5
SCL	20	176	5	96	32	2
TAP	20	192	4
TAP	20	224	6
TAP	20	240	7
TAP	20	272	1
TAP	20	272	5
TAP	20	320	0
TAP	20	336	7
TAP	20	368	7
TAP	21	0	5
TAP	21	32	5
TAP	21	48	3
STR	21	80	3
SCR	21	80	3	96	80	2
TAP	21	96	1
TAP	21	128	1
TTP	21	176	0	C	1	M1
TAP	21	320	7
TAP	21	336	0
STR	21	368	5
SCL	21	368	5	96	32	2
TAP	22	0	4
TAP	22	32	6
TAP	22	48	7
TAP	22	80	1
TAP	22	80	5
TAP	22	128	0
TAP	22	144	7
STR	22	176	2
SCR	22	176	2	96	32	5
TAP	22	192	3
TAP	22	224	1
TAP	22	240	0
TAP	22	272	2
TAP	22	272	6
TAP	22	320	7
TAP	22	336	0
TAP	22	368	0
TAP	23	0	2
TAP	23	32	2
TAP	23	48	4
TAP	23	80	4
TAP	23	96	6
TAP	23	128	3
TAP	23	128	6
TAP	23	176	1
TAP	23	176	4
TAP	23	224	2
TAP	23	240	4
TAP	23	256	3
TAP	23	272	6
BRK	23	288	0
TAP	23	320	4
TAP	23	336	3
STR	23	368	6
SCR	23	368	6	96	32	1
TAP	24	0	7
TAP	24	32	5
TAP	24	48	4
TAP	24	80	2
TAP	24	80	6
TAP	24	128	3
TAP	24	144	4
STR	24	176	1
SCL	24	176	1	96	32	6
TAP	24	192	0
TAP	24	224	2
TAP	24	240	3
TAP	24	272	1
TAP	24	272	5
TAP	24	320	4
TAP	24	336	3
TAP	24	368	3
TAP	25	0	1
TAP	25	32	1
TAP	25	48	7
STR	25	80	7
SCR	25	80	7	96	80	5
TAP	25	96	5
TAP	25	128	5
TTP	25	176	0	C	1	M1
TAP	25	320	3
TAP	25	336	4
STR	25	368	1
SCL	25	368	1	96	32	6
TAP	26	0	0
TAP	26	32	2
TAP	26	48	3
TAP	26	80	1
TAP	26	80	5
TAP	26	128	4
TAP	26	144	3
STR	26	176	6
SCR	26	176	6	96	32	1
TAP	26	192	7
TAP	26	224	5
TAP	26	240	4
TAP	26	272	2
TAP	26	272	6
TAP	26	320	3
TAP	26	336	4
TAP	26	368	4
TAP	27	0	6
TAP	27	32	6
TAP	27	48	0
TAP	27	80	0
TAP	27	96	1
TAP	27	128	1
TAP	27	128	4
TAP	27	176	3
TAP	27	176	6
TAP	27	224	5
TAP	27	240	3
TAP	27	256	4
TAP	27	272	1
BRK	27	288	7
TAP	27	320	1
TAP	27	336	0
STR	27	368	2
SI_	27	368	2	96	32	7
TAP	28	0	3
TAP	28	32	1
TAP	28	48	0
TAP	28	80	2
TAP	28	128	6
TAP	28	144	7
TAP	28	176	5
TAP	28	192	4
TAP	28	224	2
TAP	28	240	3
TAP	28	272	1
TAP	28	272	4
STR	28	288	1
SI_	28	288	1	96	48	4
TAP	28	288	4
TAP	28	336	6
TAP	29	0	1
STR	29	0	5
SI_	29	0	5	96	48	0
STR	29	96	1
SCL	29	96	1	96	32	6
STR	29	96	5
SCL	29	96	5	96	32	2
TAP	29	192	1
TAP	29	192	5
BRK	29	288	0
BRK	29	288	4
TAP	30	0	2
TAP	30	0	5
TAP	30	32	1
TAP	30	48	3
TAP	30	80	2
TAP	30	96	4
TAP	30	128	3
TAP	30	144	5
TAP	30	176	4
TAP	30	192	6
TAP	30	240	1
TAP	30	240	7
TAP	30	288	2
TAP	30	288	4
TAP	30	320	5
TAP	30	336	4
TAP	30	368	2
TAP	31	0	3
TAP	31	32	5
TAP	31	48	7
TAP	31	80	6
TAP	31	96	0
TAP	31	128	7
TAP	31	144	1
TAP	31	176	0
TAP	31	192	2
TAP	31	240	0
TAP	31	240	7
TAP	31	288	1
TAP	31	288	6
TAP	31	336	5
TAP	31	352	4
TAP	31	368	5
TAP	32	0	4
TAP	32	32	3
TAP	32	32	6
TAP	32	64	2
TAP	32	64	5
HLD	32	96	1	64
TAP	32	96	4
TAP	32	160	0
TAP	32	176	1
TAP	32	192	7
TAP	32	208	0
TAP	32	224	6
TAP	32	240	7
TAP	32	256	5
TAP	32	272	0
TAP	32	288	6
TAP	32	304	1
TAP	32	320	7
TAP	32	336	2
TAP	32	352	0
TAP	32	368	1
TAP	33	0	7
TAP	33	32	1
TAP	33	32	7
TAP	33	80	2
TAP	33	96	3
TAP	33	128	3
TAP	33	144	4
TAP	33	176	4
HLD	33	192	6	32
TAP	33	224	4
TAP	33	240	5
TAP	33	256	2
TAP	33	272	3
TAP	33	288	1
TAP	33	288	4
TAP	33	336	0
TAP	33	336	7
TAP	34	0	2
TAP	34	0	5
TAP	34	32	6
TAP	34	48	4
TAP	34	80	5
TAP	34	96	3
TAP	34	128	4
TAP	34	144	2
TAP	34	176	3
TAP	34	192	1
TAP	34	224	1
TAP	34	224	7
TAP	34	272	6
TAP	34	288	4
TAP	34	320	0
TAP	34	320	6
HLD	34	368	1	48
TAP	34	368	7
TAP	35	32	0
TAP	35	64	0
TAP	35	64	2
TAP	35	96	1
STR	35	96	7
SCR	35	96	7	96	64	5
TAP	35	128	5
TAP	35	128	7
TAP	35	160	0
TAP	35	160	6
BRK	35	192	1
BRK	35	192	7
TAP	35	288	2
TAP	35	304	0
TAP	35	320	1
TAP	35	336	7
TAP	35	352	0
TAP	35	368	6
HLD	36	0	7	48
TAP	36	48	4
TAP	36	80	2
TAP	36	80	5
TAP	36	128	6
TAP	36	144	4
TAP	36	160	5
TAP	36	176	3
HLD	36	192	4	48
TAP	36	240	0
TAP	36	272	1
TAP	36	272	6
TAP	36	320	1
TAP	36	336	7
TAP	36	352	0
TAP	36	368	6
HLD	37	0	7	32
HLD	37	32	5	32
HLD	37	64	3	32
HLD	37	96	1	32
HLD	37	128	3	32
HLD	37	160	5	32
HLD	37	192	7	32
HLD	37	224	1	32
TAP	37	256	7
TAP	37	288	0
TAP	37	288	4
BRK	37	320	2
BRK	37	320	6
STR	38	0	3
SCL	38	0	3	96	48	0
TAP	38	0	4
TTP	38	96	1	B	0	M1
TTP	38	96	2	B	0	M1
STR	38	192	4
SCR	38	192	4	96	48	7
TAP	38	240	4
TTP	38	288	5	B	0	M1
TTP	38	288	6	B	0	M1
STR	39	0	3
SCL	39	0	3	96	48	0
TTP	39	96	1	B	0	M1
TTP	39	96	2	B	0	M1
STR	39	192	4
SCR	39	192	4	96	48	7
TAP	39	240	4
TTP	39	288	5	B	0	M1
TTP	39	288	6	B	0	M1
STR	40	0	0
SCR	40	0	0	96	48	3
TTP	40	96	1	B	0	M1
TTP	40	96	2	B	0	M1
STR	40	192	7
SCL	40	192	7	96	48	4
TAP	40	240	7
TTP	40	288	5	B	0	M1
TTP	40	288	6	B	0	M1
STR	41	0	0
SI_	41	0	0	96	48	4
TAP	41	48	0
STR	41	96	5
SI_	41	96	5	96	48	1
TAP	41	144	5
STR	41	192	3
SI_	41	192	3	96	48	0
TAP	41	240	3
TTP	41	288	0	C	0	M1
TTP	41	288	5	B	0	M1
TAP	42	0	6
TAP	42	0	7
TAP	42	48	5
TAP	42	48	6
TAP	42	96	4
TAP	42	96	5
TAP	42	144	3
TAP	42	144	4
TAP	42	192	0
TAP	42	192	1
TAP	42	240	1
TAP	42	240	2
TAP	42	288	2
TAP	42	288	3
TAP	42	336	3
TAP	42	336	4
TAP	43	0	5
TAP	43	16	4
TAP	43	32	6
TAP	43	48	2
TAP	43	64	3
TAP	43	80	1
TAP	43	96	6
TAP	43	112	7
TAP	43	128	5
TAP	43	144	1
TAP	43	160	0
TAP	43	176	2
TAP	43	192	5
TAP	43	208	4
TAP	43	224	7
TAP	43	240	2
TAP	43	240	6
BRK	43	272	0
BRK	43	272	4
TAP	44	0	3
STR	44	0	5
SXL	44	0	5	96	192	4
STR	45	0	0
SV_	45	0	0	96	144	7
TAP	45	0	5
STR	46	0	2
SXR	46	0	2	96	192	3
TAP	46	0	6
XTP	46	336	2
XTP	46	336	5
TAP	47	0	6
TAP	47	32	6
TAP	47	48	4
TAP	47	80	4
TAP	47	96	3
TAP	47	128	1
TAP	47	128	3
TAP	47	176	4
TAP	47	176	6
TAP	47	224	5
TAP	47	240	3
TAP	47	256	4
TAP	47	272	1
BRK	47	288	7
TAP	47	320	3
TAP	47	336	4
STR	47	368	1
SCR	47	368	1	96	32	4
TAP	48	0	0
TAP	48	32	2
TAP	48	48	3
TAP	48	80	1
TAP	48	80	5
TAP	48	128	7
TAP	48	144	0
STR	48	176	5
SCR	48	176	5	96	32	0
TAP	48	192	4
TAP	48	224	6
TAP	48	240	7
TAP	48	272	1
TAP	48	272	5
TAP	48	320	2
TAP	48	336	0
TAP	48	368	0
TAP	49	0	6
TAP	49	32	6
TAP	49	48	4
STR	49	80	4
SCR	49	80	4	96	80	2
TAP	49	96	2
TAP	49	128	2
TTP	49	176	0	C	1	M1
TAP	49	320	0
TAP	49	336	7
STR	49	368	2
SCL	49	368	2	96	32	7
TAP	50	0	3
TAP	50	32	1
TAP	50	48	0
TAP	50	80	2
TAP	50	80	6
TAP	50	128	4
TAP	50	144	3
STR	50	176	6
SCL	50	176	6	96	32	3
TAP	50	192	7
TAP	50	224	5
TAP	50	240	4
TAP	50	272	2
TAP	50	272	6
TAP	50	320	1
TAP	50	336	3
TAP	50	368	3
TAP	51	0	5
TAP	51	32	5
TAP	51	48	7
TAP	51	80	7
TAP	51	96	1
TAP	51	128	1
TAP	51	128	3
TAP	51	176	4
TAP	51	176	6
TAP	51	224	2
TAP	51	240	4
TAP	51	256	3
TAP	51	272	6
BRK	51	288	0
TAP	51	320	6
TAP	51	336	7
STR	51	368	5
SI_	51	368	5	96	32	0
TAP	52	0	4
TAP	52	32	6
TAP	52	48	7
TAP	52	80	5
TAP	52	128	1
TAP	52	144	0
TAP	52	176	2
TAP	52	192	3
TAP	52	224	5
TAP	52	240	4
TAP	52	272	3
TAP	52	272	6
TAP	52	288	3
STR	52	288	6
SV_	52	288	6	96	48	4
TAP	52	336	1
STR	53	0	2
SV_	53	0	2	96	48	0
TAP	53	0	6
STR	53	96	2
SUL	53	96	2	96	32	5
STR	53	96	6
SUL	53	96	6	96	32	1
TAP	53	192	2
TAP	53	192	6
BRK	53	288	0
BRK	53	288	4
STR	54	0	3
SXR	54	0	3	96	96	4
TAP	54	0	4
TAP	54	48	2
TAP	54	48	5
HLD	54	96	6	160
TAP	54	256	4
TAP	54	288	3
TAP	54	288	4
TAP	54	320	1
TAP	54	320	3
TAP	54	352	0
TAP	54	352	7
TAP	55	0	1
TAP	55	0	6
TAP	55	48	2
TAP	55	80	2
TAP	55	96	0
TAP	55	128	0
TAP	55	144	7
TAP	55	176	7
STR	55	192	5
SXL	55	192	5	96	96	3
TAP	55	224	5
XTP	55	272	2
TAP	56	0	1
TAP	56	48	3
TAP	56	48	4
TAP	56	96	1
TAP	56	128	1
TAP	56	144	3
TAP	56	176	3
STR	56	192	4
SXL	56	192	4	96	80	3
TAP	56	224	4
XTP	56	272	7
TAP	57	0	2
TAP	57	0	7
TAP	57	32	6
TAP	57	48	4
TAP	57	80	5
TAP	57	96	3
TAP	57	128	4
TAP	57	144	2
STR	57	176	3
SF_	57	176	3	96	48	7
TAP	57	192	1
TAP	57	224	0
TAP	57	224	6
TAP	58	0	3
TAP	58	0	4
TAP	58	48	1
TAP	58	80	1
TAP	58	80	3
STR	58	128	3
SI_	58	128	3	96	32	7
TAP	58	128	5
TAP	58	176	1
TAP	58	176	4
TAP	58	224	3
TAP	58	224	6
TAP	58	272	1
TAP	58	272	5
TAP	58	320	0
TAP	58	336	7
TAP	59	0	2
TAP	59	0	6
TAP	59	48	6
TAP	59	80	6
TAP	59	96	7
TAP	59	128	7
TAP	59	144	0
TAP	59	176	0
STR	59	192	1
SI_	59	192	1	96	32	5
TAP	59	224	1
TAP	59	240	3
TAP	59	288	1
TAP	59	288	4
TAP	59	336	3
TAP	59	336	7
TAP	60	0	3
STR	60	0	4
SV_	60	0	4	96	32	1
TAP	60	48	6
TAP	60	80	6
TAP	60	96	4
TAP	60	144	2
TAP	60	144	6
STR	60	192	3
SV_	60	192	3	96	32	6
TAP	60	192	4
TAP	60	240	1
TAP	60	272	1
TAP	60	288	3
TAP	60	336	1
TAP	60	336	5
TAP	61	0	3
TAP	61	0	4
TAP	61	48	6
TAP	61	80	6
TAP	61	96	0
TAP	61	128	0
STR	61	144	5
SV_	61	144	5	96	48	3
TAP	61	176	5
STR	61	192	3
SI_	61	192	3	96	32	7
STR	61	240	5
SF_	61	240	5	96	32	1
BRK	61	288	1
BRK	61	336	5

T_REC_TAP	545
T_REC_BRK	22
T_REC_XTP	8
T_REC_HLD	26
T_REC_XHO	1
T_REC_STR	63
T_REC_BST	0
T_REC_XST	0
T_REC_TTP	75
T_REC_THO	0
T_REC_SLD	63
T_REC_ALL	803
T_NUM_TAP	691
T_NUM_BRK	22
T_NUM_HLD	27
T_NUM_SLD	63
T_NUM_ALL	803
T_JUDGE_TAP	713
T_JUDGE_HLD	111
T_JUDGE_SLD	63
T_JUDGE_ALL	887
TTM_EACHPAIRS	116
TTM_SCR_TAP	345500
TTM_SCR_BRK	57200
TTM_SCR_HLD	27000
TTM_SCR_SLD	94500
TTM_SCR_ALL	524200
TTM_SCR_S	506350
TTM_SCR_SS	522000
TTM_RAT_ACV	10042

