VERSION	0.00.00	1.03.00
FES_MODE	0
BPM_DEF	 98.000	 98.000	 98.000	 98.000
MET_DEF	4	4
RESOLUTION	384
CLK_DEF	384
COMPATIBLE_CODE	MA2

BPM	0	0	 98.000
MET	0	0	4	4

TAP	1	272	4
TAP	1	288	3
TAP	1	320	3
TAP	1	336	4
TTP	2	0	0	C	1	M1
TTP	2	0	1	B	0	M1
TTP	2	0	2	B	0	M1
TTP	2	0	5	B	0	M1
TTP	2	0	6	B	0	M1
TAP	2	96	0
TAP	2	96	7
TAP	2	176	2
TAP	2	192	3
TAP	2	224	3
TAP	2	240	1
STR	2	288	0
SUR	2	288	0	96	48	4
TAP	2	288	4
HLD	3	0	5	96
TAP	3	96	6
TAP	3	176	5
TAP	3	192	4
TAP	3	224	4
TAP	3	240	6
TAP	3	288	3
STR	3	288	7
SUL	3	288	7	96	48	3
HLD	4	0	2	96
TAP	4	96	1
TAP	4	176	1
TAP	4	192	0
TAP	4	224	0
TAP	4	240	2
STR	4	288	1
SCL	4	288	1	96	48	6
TAP	4	288	6
HLD	5	0	4	96
TAP	5	96	3
TAP	5	176	4
TAP	5	192	3
TAP	5	224	3
TAP	5	240	4
BRK	5	288	1
BRK	5	288	6
HLD	6	0	6	48
HLD	6	48	5	48
HLD	6	96	4	48
HLD	6	144	3	48
HLD	6	192	5	48
HLD	6	240	4	48
HLD	6	288	3	48
HLD	6	336	2	48
HLD	7	0	4	48
HLD	7	48	3	48
HLD	7	96	2	48
XTP	7	144	1
XTP	7	176	1
XTP	7	176	3
XTP	7	224	4
XTP	7	224	6
XTP	7	272	3
XTP	7	272	4
TAP	7	336	0
STR	7	336	7
SI_	7	336	7	96	48	3
TAP	8	0	4
BRK	8	48	0
TAP	8	144	2
TAP	8	144	5
TAP	8	192	3
TAP	8	240	1
TAP	8	240	4
TAP	8	288	5
TAP	8	336	3
TAP	8	336	6
TAP	9	0	2
TAP	9	48	1
TAP	9	48	5
TAP	9	96	4
TAP	9	144	2
TAP	9	144	6
TAP	9	192	3
TAP	9	240	0
TAP	9	240	5
TAP	9	288	2
TAP	9	288	7
TAP	9	336	1
TAP	9	336	6
XTP	9	368	1
XTP	9	368	6
TAP	10	48	2
TAP	10	96	3
TAP	10	144	4
TAP	10	192	5
TAP	10	240	4
TAP	10	240	6
TAP	10	272	4
TAP	10	272	6
TAP	10	336	5
TAP	11	0	4
TAP	11	48	3
TAP	11	96	2
TAP	11	144	1
TAP	11	144	3
TAP	11	176	1
TAP	11	176	3
TAP	11	240	2
TAP	11	288	0
TAP	11	336	7
TAP	12	0	5
TAP	12	48	4
TAP	12	48	6
TAP	12	96	2
TAP	12	144	1
TAP	12	144	3
TAP	12	192	6
TAP	12	240	5
TAP	12	240	7
TAP	12	288	1
TAP	12	336	0
TAP	12	336	2
HLD	13	0	6	144
HLD	13	96	1	48
XTP	13	176	1
XTP	13	176	6
TAP	13	240	0
TAP	13	240	7
TAP	13	288	1
TAP	13	288	6
TAP	13	336	2
TAP	13	336	5
HLD	14	0	3	192
TAP	14	0	4
TTP	14	96	0	C	0	M1
HLD	14	192	4	192
TAP	14	240	3
TTP	14	288	0	C	0	M1
HLD	15	0	2	192
TTP	15	96	0	C	0	M1
HLD	15	192	5	192
TAP	15	240	3
TTP	15	288	0	C	0	M1
HLD	16	0	1	192
TTP	16	96	0	C	0	M1
HLD	16	192	6	192
TAP	16	240	4
TTP	16	288	0	C	0	M1
HLD	17	0	0	192
TTP	17	96	0	C	0	M1
HLD	17	192	7	192
TAP	17	240	4
TTP	17	288	0	C	0	M1
HLD	18	0	0	672
TAP	18	48	7
TAP	18	96	6
TAP	18	144	5
TAP	18	192	4
TAP	18	240	3
TAP	18	288	2
TAP	18	336	1
TTP	19	0	0	E	0	M1
TTP	19	48	6	E	0	M1
TTP	19	96	4	E	0	M1
TTP	19	144	2	E	0	M1
THO	19	192	0	96	C	0	M1
BRK	20	0	3
BRK	20	0	7
TAP	20	48	1
TAP	20	48	5
XTP	20	80	1
XTP	20	80	5
TAP	20	128	2
TAP	20	144	3
TAP	20	176	3
TAP	20	192	1
TAP	20	240	2
TAP	20	240	6
XTP	20	272	2
XTP	20	272	6
TAP	20	320	5
TAP	20	336	4
TAP	20	368	4
TAP	21	0	6
TAP	21	32	6
TAP	21	48	2
STR	21	80	2
SCL	21	80	2	96	112	5
TAP	21	96	4
TAP	21	128	4
XHO	21	176	7	112
HLD	22	0	1	48
TAP	22	48	0
XTP	22	80	2
XTP	22	80	7
TAP	22	128	5
TAP	22	144	4
TAP	22	176	4
HLD	22	192	6	48
TAP	22	240	7
XTP	22	272	0
XTP	22	272	5
TAP	22	320	2
TAP	22	336	3
TAP	22	368	3
HLD	23	0	1	96
TTP	23	48	0	E	0	M1
HLD	23	96	6	96
TTP	23	144	4	E	0	M1
HLD	23	192	2	96
TTP	23	240	0	E	0	M1
XTP	23	288	5
BRK	24	0	0
BRK	24	0	4
TAP	24	48	2
TAP	24	48	6
XTP	24	80	2
XTP	24	80	6
TAP	24	128	5
TAP	24	144	4
TAP	24	176	4
TAP	24	192	6
TAP	24	240	1
TAP	24	240	5
XTP	24	272	1
XTP	24	272	5
TAP	24	320	2
TAP	24	336	3
TAP	24	368	3
TAP	25	0	1
TAP	25	32	1
TAP	25	48	5
STR	25	80	5
SCR	25	80	5	96	112	2
TAP	25	96	3
TAP	25	128	3
XHO	25	176	0	112
HLD	26	0	6	48
TAP	26	48	7
XTP	26	80	0
XTP	26	80	5
TAP	26	128	2
TAP	26	144	3
TAP	26	176	3
HLD	26	192	1	48
TAP	26	240	0
XTP	26	272	2
XTP	26	272	7
TAP	26	320	5
TAP	26	336	4
TAP	26	368	4
HLD	27	0	6	96
TAP	27	48	7
HLD	27	96	1	96
TAP	27	144	0
TAP	27	192	4
TAP	27	240	3
TAP	27	240	4
TAP	27	288	0
TAP	27	288	7
TAP	27	320	5
TAP	27	336	4
TAP	27	368	4
TAP	28	0	6
TAP	28	48	0
TAP	28	48	1
XTP	28	80	2
XTP	28	80	7
TAP	28	128	2
TAP	28	144	3
TAP	28	176	3
TAP	28	192	1
TAP	28	240	6
TAP	28	240	7
XTP	28	272	0
XTP	28	272	5
TAP	28	320	4
TAP	28	336	3
TAP	28	368	3
TAP	29	0	4
TAP	29	48	1
TAP	29	48	6
STR	29	96	3
SCL	29	96	3	96	48	0
STR	29	96	4
SCR	29	96	4	96	48	7
TTP	29	288	0	C	1	M1
TTP	29	288	1	B	0	M1
TTP	29	288	2	B	0	M1
TTP	29	288	2	E	0	M1
TTP	29	288	5	B	0	M1
TTP	29	288	6	B	0	M1
TTP	29	288	6	E	0	M1
TAP	30	0	0
TAP	30	0	7
TAP	30	48	0
TAP	30	48	7
STR	30	96	1
SCR	30	96	1	96	48	4
TAP	30	96	6
TAP	30	192	4
TAP	30	240	5
STR	30	288	6
SCL	30	288	6	96	48	3
TAP	30	288	7
TAP	31	0	3
TAP	31	48	2
TAP	31	96	0
STR	31	96	1
SI_	31	96	1	96	48	5
TAP	31	192	5
TAP	31	240	6
TAP	31	288	0
TAP	31	288	7
TAP	32	0	1
TAP	32	48	0
HLD	32	96	2	48
HLD	32	96	7	48
TAP	32	192	0
TAP	32	192	5
TAP	32	240	7
TAP	32	288	6
TAP	32	336	5
TAP	33	0	1
HLD	33	0	4	96
TTP	33	48	6	E	0	M1
HLD	33	96	2	96
TTP	33	144	1	E	0	M1
HLD	33	192	6	96
TTP	33	240	5	E	0	M1
HLD	33	288	0	96
TTP	33	336	0	C	0	M1
TAP	34	0	7
TAP	34	48	3
TAP	34	48	4
TAP	34	96	0
TAP	34	128	0
TAP	34	144	3
TAP	34	176	3
TAP	34	192	2
TAP	34	224	2
TAP	34	240	6
TAP	34	272	6
TAP	34	288	4
TAP	34	320	4
TAP	34	336	7
TAP	34	368	7
HLD	35	0	0	32
HLD	35	32	3	32
HLD	35	64	1	32
HLD	35	96	5	32
HLD	35	128	4	32
HLD	35	160	7	32
TTP	35	192	0	C	1	M1
TAP	36	0	1
TAP	36	48	0
TAP	36	48	1
TAP	36	96	6
TAP	36	144	6
TAP	36	144	7
TAP	36	192	2
TAP	36	240	1
TAP	36	240	3
TAP	36	288	5
TAP	36	336	4
TAP	36	336	6
TAP	37	0	2
TAP	37	0	3
TAP	37	32	2
TAP	37	64	2
TAP	37	96	0
TAP	37	96	1
TAP	37	128	0
TAP	37	160	0
TAP	37	192	6
TAP	37	192	7
TAP	37	224	7
TAP	37	256	7
TAP	37	288	4
TAP	37	288	5
TAP	37	320	5
TAP	37	352	5
TAP	38	0	3
HLD	38	0	4	192
TTP	38	96	0	C	0	M1
HLD	38	192	3	192
TAP	38	240	4
TTP	38	288	0	C	0	M1
HLD	39	0	5	192
TTP	39	96	0	C	0	M1
HLD	39	192	2	192
TAP	39	240	4
TTP	39	288	0	C	0	M1
HLD	40	0	6	192
TTP	40	96	0	C	0	M1
HLD	40	192	1	192
TAP	40	240	3
TTP	40	288	0	C	0	M1
HLD	41	0	7	192
TAP	41	48	1
TAP	41	96	3
TAP	41	144	5
HLD	41	192	0	192
TAP	41	240	6
TAP	41	288	4
TAP	41	336	2
HLD	42	0	6	96
TAP	42	48	5
HLD	42	96	2	96
TAP	42	144	1
HLD	42	192	4	96
TAP	42	240	5
TAP	42	288	3
TAP	42	336	2
TAP	42	336	4
TAP	43	0	3
TAP	43	0	5
TAP	43	48	1
TAP	43	48	4
TAP	43	96	2
TAP	43	96	6
TAP	43	144	0
TAP	43	144	4
TAP	43	192	2
TAP	43	208	3
TAP	43	224	1
TAP	43	240	5
TAP	43	256	4
TAP	43	272	6
BST	43	288	0
SCR	43	288	0	96	576	7
TTP	44	0	0	C	1	M1
BST	47	0	1
SI_	47	0	1	96	48	4
BRK	47	0	7
TAP	47	48	1
BST	47	96	5
SI_	47	96	5	96	48	0
TAP	47	144	5
BST	47	192	3
SI_	47	192	3	96	48	7
TAP	47	240	3
BRK	47	288	7
BRK	48	0	0
BRK	48	0	4
TAP	48	48	2
TAP	48	48	6
XTP	48	80	2
XTP	48	80	6
TAP	48	128	1
TAP	48	144	0
TAP	48	176	0
TAP	48	192	2
TAP	48	240	1
TAP	48	240	5
XTP	48	272	1
XTP	48	272	5
TAP	48	320	6
TAP	48	336	7
TAP	48	368	7
TAP	49	0	5
TAP	49	32	5
TAP	49	48	2
STR	49	80	2
SUR	49	80	2	96	112	5
TAP	49	96	4
TAP	49	128	4
XHO	49	176	7	112
HLD	50	0	1	48
TAP	50	48	0
XTP	50	80	2
XTP	50	80	7
TAP	50	128	5
TAP	50	144	4
TAP	50	176	4
HLD	50	192	6	48
TAP	50	240	7
XTP	50	272	0
XTP	50	272	5
TAP	50	320	2
TAP	50	336	3
TAP	50	368	3
HLD	51	0	1	96
TTP	51	48	0	E	0	M1
HLD	51	96	6	96
TTP	51	144	4	E	0	M1
TAP	51	192	1
TAP	51	240	3
TAP	51	240	4
BRK	51	288	0
BRK	51	288	7
TAP	51	320	2
TAP	51	336	3
TAP	51	368	3
TAP	52	0	1
TAP	52	48	6
TAP	52	48	7
XTP	52	80	0
XTP	52	80	5
TAP	52	128	5
TAP	52	144	4
TAP	52	176	4
TAP	52	192	6
TAP	52	240	0
TAP	52	240	1
XTP	52	272	2
XTP	52	272	7
TAP	52	320	4
TAP	52	336	3
TAP	52	368	3
XST	53	0	4
SI_	53	0	4	96	48	0
XST	53	96	4
SCR	53	96	4	96	96	3
TTP	53	288	0	C	1	M1
TAP	54	0	0
TAP	54	0	7
TAP	54	48	0
TAP	54	48	7
TAP	54	96	1
HLD	54	96	6	80
TAP	54	176	7
TAP	54	192	6
TAP	54	240	0
TAP	54	240	5
TAP	54	288	2
STR	54	288	4
SCR	54	288	4	96	48	7
TAP	55	0	3
TAP	55	48	2
HLD	55	96	1	80
TAP	55	176	0
TAP	55	192	1
TAP	55	240	2
TAP	55	240	7
STR	55	288	3
SCL	55	288	3	96	48	0
TAP	55	288	5
TAP	56	0	4
TAP	56	48	5
HLD	56	96	6	80
TAP	56	176	7
TAP	56	192	6
TAP	56	240	0
TAP	56	240	5
HLD	56	288	3	48
HLD	56	288	4	48
STR	57	0	1
SI_	57	0	1	96	32	3
TAP	57	48	1
STR	57	96	7
SI_	57	96	7	96	32	5
TAP	57	144	7
STR	57	192	0
SI_	57	192	0	96	48	4
TAP	57	240	0
XTP	57	288	7
TAP	58	0	4
TAP	58	0	5
XTP	58	48	0
TAP	58	96	2
TAP	58	96	3
XTP	58	144	7
TAP	58	192	4
TAP	58	192	6
XTP	58	240	0
XTP	58	240	1
TAP	58	288	1
TAP	58	288	3
XTP	58	336	6
XTP	58	336	7
HLD	59	0	5	48
HLD	59	48	4	48
HLD	59	96	3	48
HLD	59	144	2	48
STR	59	192	1
SCL	59	192	1	96	48	6
TAP	59	240	3
XTP	59	288	4
TAP	60	0	3
TAP	60	0	4
TAP	60	48	6
TAP	60	48	7
XTP	60	80	0
XTP	60	80	5
TAP	60	128	5
TAP	60	144	4
TAP	60	192	4
TAP	60	192	6
TAP	60	240	0
TAP	60	240	1
XTP	60	272	2
XTP	60	272	7
TAP	60	320	2
TAP	60	336	3
TAP	61	0	1
TAP	61	0	3
TAP	61	48	4
TAP	61	48	6
TAP	61	96	0
TAP	61	96	7
XHO	61	128	0	48
XTP	61	128	7
XTP	61	176	4
TAP	61	224	4
XTP	61	240	3
TAP	61	272	3
XTP	61	288	7
BRK	61	336	1
BRK	61	336	5

T_REC_TAP	369
T_REC_BRK	15
T_REC_XTP	60
T_REC_HLD	70
T_REC_XHO	4
T_REC_STR	18
T_REC_BST	4
T_REC_XST	2
T_REC_TTP	42
T_REC_THO	1
T_REC_SLD	24
T_REC_ALL	609
T_NUM_TAP	491
T_NUM_BRK	19
T_NUM_HLD	75
T_NUM_SLD	24
T_NUM_ALL	609
T_JUDGE_TAP	510
T_JUDGE_HLD	327
T_JUDGE_SLD	24
T_JUDGE_ALL	861
TTM_EACHPAIRS	117
TTM_SCR_TAP	245500
TTM_SCR_BRK	49400
TTM_SCR_HLD	75000
TTM_SCR_SLD	36000
TTM_SCR_ALL	405900
TTM_SCR_S	391900
TTM_SCR_SS	404000
TTM_RAT_ACV	10047

