VERSION	0.00.00	1.03.00
FES_MODE	0
BPM_DEF	 98.000	 98.000	 98.000	 98.000
MET_DEF	4	4
RESOLUTION	384
CLK_DEF	384
COMPATIBLE_CODE	MA2

BPM	0	0	 98.000
MET	0	0	4	4

HLD	2	0	2	96
HLD	2	0	3	96
TAP	2	192	2
TAP	2	192	3
TAP	2	288	4
HLD	3	0	4	96
HLD	3	0	5	96
TAP	3	192	4
TAP	3	192	5
TAP	3	288	6
HLD	4	0	6	96
HLD	4	0	7	96
TAP	4	192	6
TAP	4	192	7
TAP	4	288	0
HLD	5	0	0	96
HLD	5	0	7	96
TAP	5	192	1
TAP	5	192	6
TAP	5	288	2
TAP	5	288	5
STR	6	0	2
SI_	6	0	2	96	96	7
STR	7	0	6
SI_	7	0	6	96	96	3
STR	8	0	2
SCL	8	0	2	96	96	7
TAP	9	0	6
TAP	9	96	6
XTP	9	192	0
XTP	9	192	6
STR	10	0	5
SI_	10	0	5	96	96	0
STR	11	0	1
SI_	11	0	1	96	96	4
STR	12	0	5
SCR	12	0	5	96	96	0
TAP	13	0	1
TAP	13	96	2
TAP	13	96	4
TAP	13	192	5
TAP	13	240	5
TAP	13	288	4
TAP	13	288	5
TTP	14	0	3	B	0	L1
TTP	14	96	1	B	0	L1
TTP	14	192	4	B	0	L1
TTP	14	288	6	B	0	L1
TTP	15	0	2	B	0	L1
TTP	15	96	1	E	0	L1
TTP	15	192	0	C	0	L1
TTP	16	0	4	B	0	L1
TTP	16	96	6	B	0	L1
TTP	16	192	3	B	0	L1
TTP	16	288	1	B	0	L1
TTP	17	0	4	E	0	L1
TTP	17	96	0	C	0	L1
TTP	17	192	0	E	0	L1
TTP	17	288	1	B	0	L1
TTP	17	288	6	B	0	L1
THO	18	0	0	384	C	1	L1
TTP	18	0	2	B	0	L1
TTP	18	0	5	B	0	L1
TAP	19	192	0
TAP	19	192	7
XTP	19	288	1
XTP	19	288	6
TAP	20	0	2
TAP	20	48	2
TAP	20	96	2
TAP	20	96	3
TAP	20	192	5
TAP	20	240	5
TAP	20	288	4
TAP	20	288	5
TAP	21	0	6
TAP	21	0	7
TAP	21	96	0
TAP	21	96	1
TAP	21	192	2
TAP	21	192	3
TAP	21	288	1
TAP	21	288	4
TAP	22	0	5
TAP	22	48	5
TAP	22	96	4
TAP	22	96	5
TAP	22	192	2
TAP	22	240	2
TAP	22	288	2
TAP	22	288	3
TAP	23	0	0
TAP	23	0	1
TAP	23	96	6
TAP	23	96	7
XTP	23	192	0
XTP	23	192	5
TAP	24	0	1
TAP	24	48	1
TAP	24	96	0
TAP	24	96	1
TAP	24	192	6
TAP	24	240	6
TAP	24	288	6
TAP	24	288	7
TAP	25	0	4
TAP	25	0	5
TAP	25	96	2
TAP	25	96	3
TAP	25	192	0
TAP	25	192	1
TAP	25	288	6
TAP	25	288	7
HLD	26	0	0	96
HLD	26	0	5	96
HLD	26	192	2	96
HLD	26	192	7	96
TAP	27	0	1
TAP	27	0	6
TAP	27	96	2
TAP	27	96	5
TAP	27	192	3
TAP	27	192	4
TAP	27	240	3
TAP	27	240	4
TAP	27	288	3
TAP	27	288	4
STR	28	0	5
SUR	28	0	5	96	96	2
XTP	28	288	1
TAP	29	0	0
TAP	29	0	1
TAP	29	96	6
TAP	29	96	7
TAP	29	192	0
TAP	29	240	0
BRK	29	288	1
BRK	29	288	7
TAP	30	0	6
TAP	30	96	5
TAP	30	192	4
TAP	30	240	4
TAP	30	288	4
TAP	31	0	3
TAP	31	96	2
TAP	31	192	1
TAP	31	240	1
TAP	31	288	1
HLD	32	0	0	96
HLD	32	0	1	96
HLD	32	192	6	96
HLD	32	192	7	96
HLD	33	0	0	96
HLD	33	0	7	96
TAP	33	192	1
TAP	33	192	6
TAP	33	240	1
TAP	33	240	6
TAP	33	288	1
TAP	33	288	6
TAP	34	0	5
TAP	34	96	6
TAP	34	192	7
TAP	34	240	7
TAP	34	288	7
TAP	35	0	0
TAP	35	96	1
TAP	35	192	2
TAP	35	240	2
TAP	35	288	2
TAP	35	288	3
HLD	36	0	4	96
HLD	36	0	5	96
HLD	36	192	2	96
HLD	36	192	3	96
HLD	37	0	3	96
HLD	37	0	4	96
TAP	37	192	3
TAP	37	192	4
XTP	37	288	2
XTP	37	288	5
HLD	38	0	6	192
HLD	38	192	5	192
TAP	39	0	4
TAP	39	96	4
TAP	39	192	3
TAP	39	288	3
TAP	40	0	2
TAP	40	96	2
TAP	40	96	3
TAP	40	192	5
TAP	40	288	4
TAP	40	288	5
XTP	41	0	2
XTP	41	0	3
XTP	41	96	1
XTP	41	96	4
XTP	41	192	4
XTP	41	192	5
XTP	41	288	3
XTP	41	288	6
THO	42	0	0	384	C	1	L1
XTP	43	192	0
XTP	43	192	7
TTP	44	0	1	B	0	L1
TTP	44	0	1	E	0	L1
TTP	44	192	5	B	0	L1
TTP	44	192	6	B	0	L1
TTP	45	0	2	B	0	L1
TTP	45	0	3	E	0	L1
TTP	45	192	4	B	0	L1
TTP	45	192	5	B	0	L1
TTP	46	0	1	B	0	L1
TTP	46	0	7	B	0	L1
TTP	46	192	0	B	0	L1
TTP	46	192	6	B	0	L1
XTP	47	0	7
XTP	47	96	0
TAP	47	192	1
TAP	47	192	6
TAP	47	240	1
TAP	47	240	6
BRK	47	288	1
BRK	47	288	6
TAP	48	0	2
TAP	48	48	2
TAP	48	96	1
TAP	48	96	3
TAP	48	192	5
TAP	48	240	5
TAP	48	288	4
TAP	48	288	6
TAP	49	0	6
TAP	49	0	7
TAP	49	96	0
TAP	49	96	1
TAP	49	192	2
TAP	49	192	3
TAP	49	288	1
TAP	49	288	4
TAP	50	0	5
TAP	50	48	5
TAP	50	96	4
TAP	50	96	6
TAP	50	192	2
TAP	50	240	2
TAP	50	288	1
TAP	50	288	3
STR	51	0	4
SI_	51	0	4	96	96	7
XTP	51	288	0
TAP	52	0	1
TAP	52	48	1
TAP	52	96	2
TAP	52	96	7
TAP	52	192	6
TAP	52	240	6
TAP	52	288	0
TAP	52	288	5
XTP	53	0	4
XTP	53	0	6
XTP	53	96	1
XTP	53	96	3
TAP	53	192	3
TAP	53	192	4
TAP	53	240	3
TAP	53	240	4
XTP	53	288	2
XTP	53	288	5
HLD	54	0	1	96
TAP	54	96	0
HLD	54	192	6	96
TAP	54	288	7
HLD	55	0	1	96
TAP	55	96	3
HLD	55	192	6	96
TAP	55	288	4
TAP	56	0	7
TAP	56	96	0
TAP	56	96	6
TAP	56	192	5
TAP	56	240	5
TAP	56	288	4
TAP	56	288	5
TAP	57	0	3
TAP	57	96	2
TAP	57	96	4
TAP	57	192	1
TAP	57	240	1
XTP	57	288	0
XTP	57	288	1
HLD	58	0	6	96
TAP	58	96	7
HLD	58	192	1	96
TAP	58	288	0
HLD	59	0	6	96
TAP	59	96	4
HLD	59	192	1	96
TAP	59	288	3
HLD	60	0	4	96
TAP	60	96	5
HLD	60	192	3	96
TAP	60	288	2
XTP	61	0	4
XTP	61	0	6
XTP	61	96	1
XTP	61	96	3
XTP	61	192	3
XTP	61	192	4
XTP	61	288	1
XTP	61	288	6
BRK	61	336	1
BRK	61	336	6

T_REC_TAP	185
T_REC_BRK	6
T_REC_XTP	38
T_REC_HLD	36
T_REC_XHO	0
T_REC_STR	8
T_REC_BST	0
T_REC_XST	0
T_REC_TTP	30
T_REC_THO	2
T_REC_SLD	8
T_REC_ALL	313
T_NUM_TAP	261
T_NUM_BRK	6
T_NUM_HLD	38
T_NUM_SLD	8
T_NUM_ALL	313
T_JUDGE_TAP	267
T_JUDGE_HLD	184
T_JUDGE_SLD	8
T_JUDGE_ALL	459
TTM_EACHPAIRS	87
TTM_SCR_TAP	130500
TTM_SCR_BRK	15600
TTM_SCR_HLD	38000
TTM_SCR_SLD	12000
TTM_SCR_ALL	196100
TTM_SCR_S	189650
TTM_SCR_SS	195500
TTM_RAT_ACV	10030

