VERSION	0.00.00	1.03.00
FES_MODE	0
BPM_DEF	 98.000	 98.000	 98.000	 98.000
MET_DEF	4	4
RESOLUTION	384
CLK_DEF	384
COMPATIBLE_CODE	MA2

BPM	0	0	 98.000
MET	0	0	4	4

TAP	2	0	0
TAP	2	192	1
TAP	3	0	2
TAP	3	192	3
TAP	4	0	4
TAP	4	192	5
TAP	5	0	6
XTP	5	192	0
XTP	5	192	7
TAP	6	0	7
TAP	6	96	7
TAP	6	192	7
TAP	7	0	6
TAP	7	96	6
TAP	7	192	6
TAP	8	0	5
TAP	8	96	5
TAP	8	192	5
TAP	9	0	4
TAP	9	96	4
TAP	9	192	3
TAP	9	192	4
TAP	10	0	3
TAP	10	96	3
TAP	10	192	3
TAP	11	0	2
TAP	11	96	2
TAP	11	192	2
TAP	12	0	1
TAP	12	96	1
TAP	12	192	1
TAP	13	0	0
TAP	13	96	0
TAP	13	192	0
TAP	13	192	7
STR	14	0	1
SI_	14	0	1	96	192	5
TAP	15	0	6
TAP	15	192	6
STR	16	0	6
SI_	16	0	6	96	192	2
TAP	17	0	1
TAP	17	192	1
HLD	18	0	0	384
HLD	18	0	7	384
BRK	20	0	0
TAP	20	96	0
TAP	20	192	1
TAP	20	288	1
TAP	21	0	2
TAP	21	96	2
TAP	21	192	3
TAP	22	0	4
TAP	22	96	4
TAP	22	192	5
TAP	22	288	5
TAP	23	0	6
TAP	23	96	6
TAP	23	192	7
BRK	24	0	7
TAP	24	96	7
TAP	24	192	6
TAP	24	288	6
TAP	25	0	5
TAP	25	96	5
TAP	25	192	4
TAP	26	0	3
TAP	26	96	3
TAP	26	192	2
TAP	26	288	2
TAP	27	0	1
TAP	27	96	1
TAP	27	192	0
HLD	28	0	7	96
HLD	28	192	0	96
TAP	29	0	7
TAP	29	96	7
TAP	29	192	1
TAP	29	192	6
TTP	30	0	1	E	0	L1
TTP	30	192	0	E	0	L1
TTP	31	0	7	E	0	L1
TTP	31	192	6	E	0	L1
TTP	32	0	5	E	0	L1
TTP	32	192	4	E	0	L1
TTP	33	0	3	E	0	L1
TTP	33	192	2	E	0	L1
TTP	34	0	0	B	0	L1
TTP	34	0	1	E	0	L1
TTP	34	192	7	B	0	L1
TTP	34	192	7	E	0	L1
THO	35	0	0	192	C	1	L1
STR	36	0	7
SI_	36	0	7	96	192	4
TAP	37	0	3
TAP	37	96	3
TAP	37	192	3
TAP	37	192	4
HLD	38	0	2	192
HLD	39	0	3	192
HLD	40	0	4	192
HLD	41	0	5	192
TAP	42	0	3
TAP	42	0	4
TAP	42	192	2
TAP	42	192	5
TAP	43	0	1
TAP	43	0	6
TAP	43	192	0
TAP	43	192	7
HLD	44	0	7	384
HLD	46	0	0	384
XTP	47	192	0
XTP	47	192	7
TAP	48	0	0
TAP	48	96	0
TAP	48	192	0
TAP	48	192	7
TAP	49	0	1
TAP	49	96	1
TAP	49	192	0
TAP	49	192	1
TAP	50	0	2
TAP	50	96	2
TAP	50	192	2
TAP	50	192	3
TAP	51	0	5
TAP	51	96	5
TAP	51	192	4
TAP	51	192	5
TAP	52	0	6
TAP	52	96	6
TAP	52	192	6
TAP	52	192	7
TAP	53	0	7
TAP	53	96	7
TAP	53	192	0
TAP	53	192	7
TAP	54	0	7
TAP	54	96	6
TAP	54	192	5
TAP	54	288	4
TAP	55	0	3
TAP	55	96	2
TAP	55	192	1
TAP	55	288	0
TAP	56	0	0
TAP	56	96	1
TAP	56	192	2
TAP	56	288	3
TAP	57	0	4
TAP	57	96	5
TAP	57	192	6
TAP	57	288	7
TAP	58	0	7
TAP	58	96	6
TAP	58	192	5
TAP	58	288	4
TAP	59	0	3
TAP	59	96	2
TAP	59	192	1
TAP	59	288	0
TAP	60	0	0
TAP	60	96	1
TAP	60	192	2
TAP	60	288	3
TAP	61	0	4
TAP	61	96	5
TAP	61	192	6
BRK	61	288	7

T_REC_TAP	134
T_REC_BRK	3
T_REC_XTP	4
T_REC_HLD	10
T_REC_XHO	0
T_REC_STR	3
T_REC_BST	0
T_REC_XST	0
T_REC_TTP	12
T_REC_THO	1
T_REC_SLD	3
T_REC_ALL	170
T_NUM_TAP	153
T_NUM_BRK	3
T_NUM_HLD	11
T_NUM_SLD	3
T_NUM_ALL	170
T_JUDGE_TAP	156
T_JUDGE_HLD	112
T_JUDGE_SLD	3
T_JUDGE_ALL	271
TTM_EACHPAIRS	17
TTM_SCR_TAP	76500
TTM_SCR_BRK	7800
TTM_SCR_HLD	11000
TTM_SCR_SLD	4500
TTM_SCR_ALL	99800
TTM_SCR_S	96550
TTM_SCR_SS	99500
TTM_RAT_ACV	10030

