VERSION	0.00.00	1.03.00
FES_MODE	0
BPM_DEF	180.000	180.000	180.000	180.000
MET_DEF	4	4
RESOLUTION	384
CLK_DEF	384
COMPATIBLE_CODE	MA2

BPM	0	0	180.000
MET	0	0	4	4

TAP	1	0	4
TAP	1	48	5
TAP	1	96	3
TAP	1	144	2
TAP	1	192	5
TAP	1	240	4
TAP	1	288	2
TAP	1	336	3
HLD	2	0	5	336
TAP	2	48	4
TAP	2	144	4
TAP	2	240	4
TAP	2	336	4
HLD	3	0	2	240
TAP	3	48	3
TAP	3	144	3
TAP	3	240	3
XTP	3	288	2
XTP	3	312	3
XTP	3	336	2
HLD	4	0	5	336
TAP	4	48	4
TAP	4	144	4
TAP	4	240	4
TAP	4	336	4
HLD	5	0	2	240
TAP	5	48	3
TAP	5	144	3
TAP	5	240	3
XTP	5	288	2
XTP	5	312	3
XTP	5	336	2
HLD	6	0	1	192
TAP	6	0	4
TAP	6	96	3
HLD	6	192	5	192
TAP	6	288	4
HLD	7	0	2	192
TAP	7	96	3
HLD	7	192	6	192
TAP	7	288	4
TAP	8	0	2
TAP	8	48	2
TAP	8	96	3
TAP	8	144	3
TAP	8	192	4
TAP	8	240	4
TAP	8	288	5
TAP	8	336	5
TAP	9	0	1
TAP	9	24	3
TAP	9	48	2
TAP	9	72	4
TAP	9	96	3
TAP	9	120	5
TAP	9	144	4
TAP	9	168	6
XTP	9	192	0
XTP	9	240	0
XTP	9	288	1
XTP	9	288	6
STR	10	0	0
SI_	10	0	0	96	48	4
TAP	10	48	0
STR	10	96	7
SI_	10	96	7	96	48	5
TAP	10	144	7
STR	10	192	0
SI_	10	192	0	96	48	4
TAP	10	240	0
STR	10	288	7
SI_	10	288	7	96	48	5
TAP	10	336	7
STR	11	0	0
SI_	11	0	0	96	48	4
TAP	11	48	0
TAP	11	96	7
TAP	11	144	7
TAP	11	192	0
TAP	11	192	6
TAP	11	240	1
TAP	11	240	5
TAP	11	288	2
TAP	11	288	4
STR	12	0	7
SI_	12	0	7	96	48	3
TAP	12	48	7
STR	12	96	0
SI_	12	96	0	96	48	2
TAP	12	144	0
STR	12	192	7
SI_	12	192	7	96	48	3
TAP	12	240	7
STR	12	288	0
SI_	12	288	0	96	48	2
TAP	12	336	0
STR	13	0	7
SI_	13	0	7	96	48	3
TAP	13	48	7
TAP	13	96	0
TAP	13	144	0
TAP	13	192	1
TAP	13	192	7
TAP	13	240	2
TAP	13	240	6
TAP	13	288	3
TAP	13	288	5
STR	14	0	3
SI_	14	0	3	96	48	7
TAP	14	48	3
STR	14	96	4
SI_	14	96	4	96	48	6
TAP	14	144	4
STR	14	192	3
SI_	14	192	3	96	48	7
TAP	14	240	3
STR	14	288	4
SI_	14	288	4	96	48	6
TAP	14	336	4
STR	15	0	3
SI_	15	0	3	96	48	7
TAP	15	48	3
TAP	15	96	4
TAP	15	144	4
TAP	15	192	3
TAP	15	192	5
TAP	15	240	2
TAP	15	240	6
TAP	15	288	1
TAP	15	288	7
STR	16	0	4
SI_	16	0	4	96	48	0
TAP	16	48	4
STR	16	96	3
SI_	16	96	3	96	48	1
TAP	16	144	3
STR	16	192	4
SI_	16	192	4	96	48	0
TAP	16	240	4
STR	16	288	3
SI_	16	288	3	96	48	1
TAP	16	336	3
STR	17	0	4
SI_	17	0	4	96	48	6
TAP	17	48	4
TAP	17	96	0
TAP	17	144	0
TAP	17	192	0
TAP	17	192	7
TAP	17	240	0
TAP	17	240	7
TAP	17	288	1
TAP	17	288	6
TAP	18	0	1
TAP	18	0	3
TAP	18	48	2
TAP	18	96	3
TAP	18	96	4
TAP	18	144	5
TAP	18	192	4
TAP	18	192	6
TAP	18	240	5
TAP	18	288	3
TAP	18	312	4
TAP	18	336	3
TAP	19	0	1
TAP	19	0	4
TAP	19	48	2
TAP	19	96	5
TAP	19	120	4
TAP	19	144	5
TAP	19	168	4
TAP	19	192	5
TAP	19	288	4
TAP	19	288	6
TAP	20	0	0
TAP	20	0	2
TAP	20	48	1
TAP	20	96	0
TAP	20	96	7
TAP	20	144	6
TAP	20	192	5
TAP	20	192	7
TAP	20	240	6
TAP	20	288	0
TAP	20	312	7
TAP	20	336	0
TAP	21	0	2
TAP	21	0	7
TAP	21	48	1
TAP	21	96	6
TAP	21	120	7
TAP	21	144	6
TAP	21	168	7
TAP	21	192	6
XTP	21	288	2
XTP	21	288	5
BRK	22	0	1
HLD	22	0	4	288
BRK	22	96	0
BRK	22	192	7
BRK	22	288	6
HLD	23	0	0	288
BRK	23	0	5
BRK	23	96	4
BRK	23	192	3
BRK	23	288	2
TTP	24	0	0	B	0	M1
TTP	24	0	0	C	0	M1
TTP	24	0	1	B	0	M1
TTP	24	0	3	B	0	M1
TTP	24	0	3	E	0	M1
TTP	24	0	4	B	0	M1
TTP	24	0	7	B	0	M1
XTP	24	96	7
TTP	24	192	5	B	0	M1
TTP	24	192	5	E	0	M1
TTP	24	192	6	B	0	M1
TTP	24	192	7	E	0	M1
XST	24	288	0
SCR	24	288	0	96	192	7
TAP	25	0	7
TTP	25	192	0	C	1	M1
TAP	26	0	1
TAP	26	96	0
TAP	26	192	7
TAP	26	288	6
TAP	27	0	5
TAP	27	96	4
TAP	27	192	3
TAP	27	288	2
TTP	28	0	0	B	0	M1
TTP	28	0	0	C	0	M1
TTP	28	0	1	B	0	M1
TTP	28	0	3	B	0	M1
TTP	28	0	3	E	0	M1
TTP	28	0	4	B	0	M1
TTP	28	0	7	B	0	M1
TTP	28	192	5	B	0	M1
TTP	28	192	5	E	0	M1
TTP	28	192	6	B	0	M1
TTP	28	192	7	E	0	M1
TAP	29	0	0
TAP	29	24	6
TAP	29	48	0
TAP	29	72	6
STR	29	96	0
SI_	29	96	0	96	48	4
TAP	29	120	6
TAP	29	144	0
TAP	29	168	6
TAP	29	192	0
TAP	29	288	2
TAP	29	288	6
TAP	30	0	2
TAP	30	48	3
TAP	30	144	2
TAP	30	144	4
STR	30	192	1
SCR	30	192	1	96	48	4
TAP	30	192	3
TAP	30	288	1
TAP	30	288	4
TAP	31	0	5
TAP	31	48	4
TAP	31	144	3
TAP	31	144	5
TAP	31	192	4
STR	31	192	6
SCL	31	192	6	96	48	3
TAP	31	288	3
TAP	31	288	6
TAP	32	0	2
TAP	32	48	3
TAP	32	144	2
TAP	32	144	4
STR	32	192	1
SCR	32	192	1	96	48	4
TAP	32	192	3
TAP	32	288	1
TAP	32	288	4
TAP	33	0	5
TAP	33	24	4
TAP	33	48	5
TAP	33	72	4
STR	33	96	6
SI_	33	96	6	96	48	2
TAP	33	120	4
TAP	33	144	6
TAP	33	168	4
TAP	33	192	6
TAP	33	288	0
TAP	33	288	4
HLD	34	0	3	192
TAP	34	0	5
TAP	34	192	5
TAP	34	216	4
TAP	35	0	2
TAP	35	0	4
TAP	35	48	1
TAP	35	48	5
STR	35	96	6
SCR	35	96	6	96	96	5
TAP	35	120	0
TAP	35	144	6
TAP	35	168	0
TTP	35	288	1	E	0	M1
TTP	35	312	2	E	0	M1
TTP	35	336	3	E	0	M1
BRK	36	48	0
BRK	36	48	7
BRK	36	120	4
BRK	36	120	6
BRK	36	192	0
BRK	36	192	7
BRK	36	264	1
BRK	36	264	3
BRK	36	336	0
BRK	36	336	7
XTP	37	48	2
XTP	37	48	6
STR	37	96	1
SCL	37	96	1	96	96	2
TAP	37	120	7
TAP	37	144	1
TAP	37	168	7
TTP	37	288	7	E	0	M1
TTP	37	312	6	E	0	M1
TTP	37	336	5	E	0	M1
STR	38	0	0
SI_	38	0	0	96	48	3
TAP	38	96	5
TAP	38	192	4
HLD	38	192	5	72
TAP	38	264	7
TAP	38	288	6
TAP	38	336	0
TAP	39	0	1
STR	39	0	7
SI_	39	0	7	96	48	4
TAP	39	96	2
HLD	39	192	2	72
TAP	39	192	3
TAP	39	264	0
TAP	39	288	1
TAP	39	336	7
STR	40	0	0
SI_	40	0	0	96	48	3
TAP	40	0	6
TAP	40	96	5
TAP	40	192	4
HLD	40	192	5	72
TAP	40	264	7
TAP	40	288	6
TAP	40	336	0
TAP	41	0	1
STR	41	0	7
SI_	41	0	7	96	48	3
STR	41	96	2
SCL	41	96	2	96	120	4
TTP	41	192	0	C	1	M1
TAP	42	0	5
TAP	42	48	5
XTP	42	96	4
HLD	42	144	5	72
TAP	42	216	3
TAP	42	264	2
XTP	42	288	2
TAP	42	336	4
TAP	43	0	2
TAP	43	48	2
XTP	43	96	3
HLD	43	144	2	72
TAP	43	216	4
TAP	43	264	5
XTP	43	288	5
TAP	43	336	3
TAP	44	0	6
TAP	44	48	6
XTP	44	96	5
HLD	44	144	6	72
TAP	44	216	4
TAP	44	264	3
XTP	44	288	3
TAP	44	336	5
TAP	45	0	1
TAP	45	48	1
XTP	45	96	2
HLD	45	144	1	72
TAP	45	216	3
TAP	45	264	4
XTP	45	288	4
TAP	45	336	2
TAP	46	0	5
TAP	46	48	5
XTP	46	96	4
STR	46	144	5
SI_	46	144	5	96	48	0
TAP	46	216	2
TAP	46	264	1
XTP	46	288	1
TAP	46	336	7
TAP	47	0	2
TAP	47	48	2
XTP	47	96	3
STR	47	144	2
SI_	47	144	2	96	48	7
TAP	47	216	4
TAP	47	264	5
XTP	47	288	5
TAP	47	336	0
TAP	48	0	6
TAP	48	48	6
XTP	48	96	0
STR	48	144	7
SI_	48	144	7	96	48	4
TAP	48	216	1
TAP	48	264	2
XTP	48	288	2
TAP	48	336	5
TAP	49	0	1
TAP	49	48	1
XTP	49	96	7
HLD	49	144	7	72
TAP	49	216	0
TAP	49	264	1
TAP	49	264	6
XTP	49	288	1
XTP	49	288	6
STR	50	0	5
SI_	50	0	5	96	48	2
TAP	50	48	5
TAP	50	96	0
TAP	50	144	0
STR	50	192	1
SI_	50	192	1	96	48	6
TAP	50	240	1
TAP	50	288	4
TAP	50	336	4
STR	51	0	5
SI_	51	0	5	96	48	2
TAP	51	48	5
TAP	51	96	0
TAP	51	144	0
STR	51	192	1
SI_	51	192	1	96	48	6
TAP	51	240	1
TAP	51	288	4
TAP	51	336	4
STR	52	0	5
SI_	52	0	5	96	48	0
TAP	52	48	5
STR	52	96	1
SI_	52	96	1	96	48	4
TAP	52	144	1
STR	52	192	7
SI_	52	192	7	96	48	5
TAP	52	240	7
STR	52	288	0
SI_	52	288	0	96	48	2
TAP	52	336	0
STR	53	0	4
SI_	53	0	4	96	48	7
TAP	53	48	4
STR	53	96	3
SI_	53	96	3	96	48	0
TAP	53	144	3
TAP	53	192	7
TAP	53	240	7
XTP	53	288	1
XTP	53	288	6
XTP	54	0	2
XTP	54	0	7
TAP	54	144	2
TAP	54	144	3
XTP	54	192	0
XTP	54	192	5
TAP	54	336	4
TAP	54	336	5
XTP	55	0	2
XTP	55	0	7
TAP	55	144	3
TAP	55	144	4
XTP	55	192	1
XTP	55	192	6
TAP	55	336	2
XTP	56	0	1
XTP	56	0	3
TAP	56	48	5
XTP	56	96	4
XTP	56	96	6
TAP	56	144	2
XTP	56	192	0
XTP	56	192	3
TAP	56	240	5
XTP	56	288	4
XTP	56	288	7
TAP	56	336	3
XTP	57	0	2
XTP	57	0	4
TAP	57	48	2
TAP	57	48	4
XTP	57	96	3
XTP	57	96	5
TAP	57	144	3
TAP	57	144	5
BRK	57	192	1
BRK	57	192	4
BRK	57	264	3
BRK	57	264	6
BST	57	336	0
SUR	57	336	0	96	288	3
BST	57	336	7
SUL	57	336	7	96	288	4
THO	59	0	0	288	C	1	M1
BRK	59	288	0
TAP	60	0	1
TAP	60	0	7
TAP	60	48	0
TAP	60	96	6
TAP	60	96	7
TAP	60	144	1
TAP	60	168	1
HLD	60	192	7	48
TAP	60	240	2
TAP	60	288	1
TAP	60	288	3
TAP	60	336	0
TAP	60	360	0
HLD	61	0	6	48
TAP	61	48	4
TAP	61	96	3
TAP	61	96	7
TAP	61	144	2
TAP	61	168	2
TAP	61	192	3
TAP	61	240	0
TAP	61	288	4
TAP	61	288	5
TAP	61	336	7
TAP	62	0	2
TAP	62	0	6
TAP	62	48	0
TAP	62	96	1
TAP	62	96	4
TAP	62	144	5
TAP	62	168	5
HLD	62	192	3	48
TAP	62	240	7
TAP	62	288	4
TAP	62	288	6
TAP	62	336	5
TAP	62	360	5
TAP	63	0	1
TAP	63	48	2
TAP	63	48	3
TAP	63	96	4
TAP	63	144	3
TAP	63	144	5
TAP	63	192	6
TAP	63	240	4
TAP	63	240	5
TAP	63	288	3
TAP	63	336	2
TAP	63	336	4
TAP	64	0	0
TAP	64	0	5
TAP	64	48	1
TAP	64	96	2
TAP	64	96	7
TAP	64	144	6
TAP	64	168	6
HLD	64	192	0	48
TAP	64	240	5
TAP	64	288	4
TAP	64	288	6
TAP	64	336	7
TAP	64	360	7
HLD	65	0	1	48
TAP	65	48	3
TAP	65	96	0
TAP	65	96	4
TAP	65	144	5
TAP	65	168	5
TAP	65	192	4
TAP	65	240	7
TAP	65	288	2
TAP	65	288	3
TAP	65	336	0
TAP	66	0	1
TAP	66	0	5
TAP	66	48	7
TAP	66	96	3
TAP	66	96	6
TAP	66	144	2
TAP	66	168	2
HLD	66	192	4	48
TAP	66	240	0
TAP	66	288	1
TAP	66	288	3
TAP	66	336	2
TAP	66	360	2
TAP	67	0	1
TAP	67	0	3
TAP	67	48	2
TAP	67	48	4
TAP	67	96	3
TAP	67	96	5
TAP	67	144	4
TAP	67	144	6
TAP	67	192	0
TAP	67	240	1
TAP	67	240	7
BRK	67	288	2
BRK	67	288	6
TAP	68	0	1
TAP	68	0	3
TAP	68	48	0
HLD	68	96	6	48
TAP	68	96	7
TAP	68	144	1
TAP	68	168	1
TAP	68	192	1
TAP	68	240	3
TAP	68	288	2
HLD	68	288	4	48
TAP	68	336	0
TAP	68	360	0
TAP	69	0	0
TAP	69	48	5
TAP	69	96	4
HLD	69	96	6	48
TAP	69	144	2
TAP	69	168	2
TAP	69	192	2
TAP	69	240	7
TAP	69	288	1
TAP	69	288	3
TAP	69	336	0
TAP	70	0	4
TAP	70	0	6
TAP	70	48	0
HLD	70	96	1	48
TAP	70	96	7
TAP	70	144	6
TAP	70	168	6
TAP	70	192	6
TAP	70	240	3
HLD	70	288	2	48
TAP	70	288	4
TAP	70	336	5
TAP	70	360	5
TAP	71	0	5
TAP	71	48	4
TAP	71	48	6
TAP	71	96	3
TAP	71	96	5
TAP	71	144	2
TAP	71	144	4
TAP	71	192	0
TAP	71	192	3
TAP	71	240	1
TAP	71	240	4
TAP	71	288	2
TAP	71	288	5
TAP	71	336	3
TAP	71	336	6
TAP	72	0	1
TAP	72	0	7
TAP	72	48	6
TAP	72	96	0
HLD	72	96	5	48
TAP	72	144	1
TAP	72	168	1
TAP	72	192	1
TAP	72	240	3
TAP	72	288	2
HLD	72	288	4	48
TAP	72	336	0
TAP	72	360	0
TAP	73	0	0
TAP	73	48	5
TAP	73	96	4
HLD	73	96	6	48
TAP	73	144	2
TAP	73	168	2
TAP	73	192	2
TAP	73	240	7
TAP	73	288	1
TAP	73	288	3
TAP	73	336	0
TAP	74	0	6
TAP	74	0	7
TAP	74	48	4
TAP	74	48	5
TAP	74	96	2
TAP	74	96	3
BRK	74	144	1
BRK	74	168	0
BRK	74	192	1
TAP	74	240	2
TAP	74	240	3
TAP	74	288	4
TAP	74	288	5
BRK	74	336	6
BRK	74	360	7
BRK	75	0	6
TAP	75	48	4
TAP	75	48	5
TAP	75	96	2
TAP	75	96	3
BRK	75	144	0
BRK	75	168	0
BRK	75	192	0
TAP	75	240	1
TAP	75	240	7
BRK	75	288	2
BRK	75	288	6
STR	76	0	3
SI_	76	0	3	96	48	1
SI_	76	0	3	96	48	5
TAP	76	192	2
TAP	76	240	4
TAP	76	264	4
TAP	76	288	3
TAP	76	336	5
TAP	76	360	5
STR	77	0	4
SI_	77	0	4	96	48	2
SI_	77	0	4	96	48	6
TAP	77	192	5
TAP	77	240	3
TAP	77	264	3
TAP	77	288	4
TAP	77	336	2
TAP	77	360	2
STR	78	0	3
SI_	78	0	3	96	48	1
SI_	78	0	3	96	48	5
TAP	78	192	2
TAP	78	240	4
TAP	78	264	4
TAP	78	288	3
TAP	78	336	5
TAP	78	360	5
STR	79	0	4
SI_	79	0	4	96	48	2
SI_	79	0	4	96	48	6
TAP	79	192	3
TAP	79	192	4
TAP	79	240	3
TAP	79	240	4
TAP	79	288	3
TAP	79	288	4
TAP	79	336	3
TAP	79	336	4
TAP	80	0	2
TAP	80	24	2
TAP	80	48	2
TAP	80	72	2
TAP	80	96	2
XTP	80	144	1
XTP	80	144	3
TAP	80	192	4
TAP	80	216	4
TAP	80	240	4
TAP	80	264	4
TAP	80	288	4
XTP	80	336	3
XTP	80	336	5
TAP	81	0	0
TAP	81	24	0
TAP	81	48	0
TAP	81	72	0
TAP	81	96	0
XTP	81	144	1
XTP	81	144	7
TAP	81	192	6
TAP	81	216	6
TAP	81	240	6
TAP	81	264	6
TAP	81	288	6
XTP	81	336	5
XTP	81	336	7
TAP	82	0	0
TAP	82	24	0
TAP	82	48	0
TAP	82	72	0
TAP	82	96	1
TAP	82	120	1
TAP	82	144	1
TAP	82	168	1
TAP	82	192	0
TAP	82	216	0
TAP	82	240	0
TAP	82	264	0
TAP	82	288	7
TAP	82	312	7
TAP	82	336	7
TAP	82	360	7
TAP	83	0	0
TAP	83	24	0
TAP	83	48	0
TAP	83	72	0
TAP	83	96	0
TAP	83	120	0
TAP	83	144	0
TAP	83	168	0
TAP	83	192	0
TAP	83	240	1
STR	83	240	7
SF_	83	240	7	96	24	3
TAP	83	336	7
BRK	84	288	6

T_REC_TAP	541
T_REC_BRK	37
T_REC_XTP	62
T_REC_HLD	33
T_REC_XHO	0
T_REC_STR	50
T_REC_BST	2
T_REC_XST	1
T_REC_TTP	30
T_REC_THO	1
T_REC_SLD	57
T_REC_ALL	814
T_NUM_TAP	684
T_NUM_BRK	39
T_NUM_HLD	34
T_NUM_SLD	57
T_NUM_ALL	814
T_JUDGE_TAP	723
T_JUDGE_HLD	92
T_JUDGE_SLD	57
T_JUDGE_ALL	872
TTM_EACHPAIRS	137
TTM_SCR_TAP	342000
TTM_SCR_BRK	101400
TTM_SCR_HLD	34000
TTM_SCR_SLD	85500
TTM_SCR_ALL	562900
TTM_SCR_S	542250
TTM_SCR_SS	559000
TTM_RAT_ACV	10069

