VERSION	0.00.00	1.03.00
FES_MODE	0
BPM_DEF	180.000	180.000	180.000	180.000
MET_DEF	4	4
RESOLUTION	384
CLK_DEF	384
COMPATIBLE_CODE	MA2

BPM	0	0	180.000
MET	0	0	4	4

TAP	2	0	2
HLD	2	0	5	768
TAP	2	192	4
TAP	3	0	3
TAP	3	96	3
TAP	3	192	4
HLD	4	0	2	576
TAP	4	192	3
TAP	5	0	4
TAP	5	96	4
TAP	5	192	3
TAP	6	0	2
TAP	6	96	2
TAP	6	192	2
TAP	6	192	3
TAP	6	288	2
TAP	6	288	3
TAP	7	0	5
TAP	7	96	5
TAP	7	192	4
TAP	7	192	5
TAP	7	288	4
TAP	7	288	5
TAP	8	0	2
TAP	8	48	2
TAP	8	96	4
TAP	8	144	4
TAP	8	192	3
TAP	8	240	3
TAP	8	288	5
TAP	8	336	5
STR	9	0	3
SI_	9	0	3	96	96	7
STR	9	0	4
SI_	9	0	4	96	96	0
BRK	9	288	1
BRK	9	288	6
TAP	10	0	2
TAP	10	48	2
TAP	10	48	3
TAP	10	144	3
TAP	10	144	5
TAP	10	240	4
TAP	10	240	5
TAP	10	336	2
TAP	10	336	4
TAP	11	48	2
TAP	11	48	3
TAP	11	144	4
TAP	11	192	3
TAP	11	192	4
BRK	11	288	6
TAP	12	0	5
TAP	12	48	4
TAP	12	48	5
TAP	12	144	2
TAP	12	144	4
TAP	12	240	2
TAP	12	240	3
TAP	12	336	3
TAP	12	336	5
TAP	13	48	4
TAP	13	48	5
TAP	13	144	3
TAP	13	192	3
TAP	13	192	4
BRK	13	288	1
TAP	14	0	2
TAP	14	0	3
HLD	14	48	2	48
HLD	14	48	3	48
HLD	14	144	3	48
HLD	14	144	5	48
HLD	14	240	4	48
HLD	14	240	5	48
HLD	14	336	2	48
HLD	14	336	4	48
HLD	15	48	2	48
HLD	15	48	3	48
TAP	15	144	4
TAP	15	192	3
TAP	15	192	4
BRK	15	288	6
TAP	16	0	4
TAP	16	0	5
HLD	16	48	4	48
HLD	16	48	5	48
HLD	16	144	2	48
HLD	16	144	4	48
HLD	16	240	2	48
HLD	16	240	3	48
HLD	16	336	3	48
HLD	16	336	5	48
HLD	17	48	4	48
HLD	17	48	5	48
TAP	17	144	3
TAP	17	192	3
TAP	17	192	4
BRK	17	288	1
BRK	17	288	6
STR	18	0	7
SCL	18	0	7	96	96	4
STR	18	192	0
SCR	18	192	0	96	96	3
HLD	19	0	5	288
TAP	19	96	4
TAP	19	192	6
TAP	19	288	4
STR	20	0	3
SCL	20	0	3	96	96	0
STR	20	192	4
SCR	20	192	4	96	96	7
HLD	21	0	1	288
TAP	21	96	0
TAP	21	192	2
TAP	21	288	0
STR	22	0	2
SCR	22	0	2	96	96	5
STR	22	192	6
SUL	22	192	6	96	96	2
STR	23	0	1
SUR	23	0	1	96	96	5
TAP	23	192	7
TAP	23	288	7
XHO	24	0	1	96
TAP	24	0	7
XHO	24	192	0	96
TAP	24	192	6
STR	25	0	7
SUL	25	0	7	96	192	4
BRK	25	192	0
TAP	26	0	1
TAP	26	0	7
TAP	26	96	0
TAP	26	96	7
TAP	26	192	7
TAP	26	288	6
TAP	27	0	5
TAP	27	96	4
TAP	27	192	3
TAP	27	288	2
XHO	28	0	1	96
XHO	28	192	0	96
TAP	29	0	7
TAP	29	24	0
TAP	29	48	7
TAP	29	72	0
TAP	29	96	7
TAP	29	120	0
TAP	29	144	7
TAP	29	168	0
TAP	29	192	7
XTP	29	288	1
XTP	29	288	6
TAP	30	0	3
TAP	30	96	2
TAP	30	96	4
TAP	30	192	1
TAP	30	240	1
TAP	30	288	0
TAP	30	288	1
TAP	31	0	7
TAP	31	96	0
TAP	31	96	6
TAP	31	192	5
TAP	31	240	5
TAP	31	288	4
TAP	31	288	5
TAP	32	0	3
TAP	32	96	2
TAP	32	96	4
TAP	32	192	1
TAP	32	192	5
TAP	32	240	1
TAP	32	240	5
TAP	32	288	1
STR	32	288	5
SCR	32	288	5	96	192	2
XTP	33	0	3
BRK	33	288	1
BRK	33	288	6
HLD	34	0	3	192
HLD	34	0	4	216
TAP	35	0	3
TAP	35	48	3
TAP	35	96	4
TAP	35	144	4
TAP	35	192	3
TAP	35	192	4
TAP	35	288	2
TAP	35	288	5
TAP	35	336	2
TAP	35	336	5
XHO	36	48	1	48
XHO	36	48	3	48
XHO	36	120	2	48
XHO	36	120	4	48
XHO	36	192	3	48
XHO	36	192	5	48
XTP	36	264	4
XTP	36	264	6
XTP	36	336	7
XST	37	0	7
SF_	37	0	7	96	96	3
BRK	37	288	1
BRK	37	288	5
STR	38	0	2
SI_	38	0	2	96	96	5
HLD	38	192	6	96
TAP	38	288	4
TAP	39	0	3
STR	39	0	5
SI_	39	0	5	96	96	2
HLD	39	192	1	96
TAP	39	288	3
STR	40	0	2
SI_	40	0	2	96	96	5
TAP	40	0	4
HLD	40	192	6	384
TAP	40	288	4
THO	41	0	0	192	C	0	M1
TAP	42	0	5
TTP	42	96	5	E	0	M1
TTP	42	96	6	E	0	M1
TAP	42	288	5
TAP	43	0	4
TTP	43	96	4	E	0	M1
TTP	43	96	5	E	0	M1
TAP	43	288	4
TAP	44	0	3
TTP	44	96	3	E	0	M1
TTP	44	96	4	E	0	M1
TAP	44	288	3
TAP	45	0	2
TTP	45	96	2	E	0	M1
TTP	45	96	3	E	0	M1
TAP	45	288	2
HLD	46	0	3	384
TTP	46	96	4	E	0	M1
TTP	46	288	3	E	0	M1
HLD	47	0	4	384
TTP	47	96	4	E	0	M1
TTP	47	288	5	E	0	M1
TTP	48	0	6	E	0	M1
TTP	48	96	0	C	0	M1
TTP	48	192	2	E	0	M1
TTP	48	288	0	E	0	M1
TTP	49	0	0	C	0	M1
TTP	49	96	4	E	0	M1
TTP	49	192	3	E	0	M1
TTP	49	192	5	E	0	M1
TAP	50	0	2
STR	50	0	5
SCL	50	0	5	96	192	2
TAP	50	192	1
TAP	50	288	1
TAP	51	0	2
STR	51	0	5
SCL	51	0	5	96	192	2
TAP	51	192	1
TAP	51	288	1
TAP	52	0	2
STR	52	0	6
SUL	52	0	6	96	192	2
TAP	52	192	0
TAP	52	288	0
TAP	53	0	2
STR	53	0	6
SUL	53	0	6	96	192	2
TAP	53	192	0
TAP	53	288	0
XHO	54	0	2	96
XHO	54	0	3	96
TAP	54	144	3
TAP	54	144	4
XHO	54	192	3	96
XHO	54	192	4	96
TAP	54	336	4
TAP	54	336	5
XHO	55	0	4	96
XHO	55	0	5	96
TAP	55	144	3
TAP	55	144	4
XHO	55	192	3	96
XHO	55	192	4	96
TAP	55	336	3
TAP	55	336	4
TAP	56	0	2
TAP	56	48	2
TAP	56	96	5
TAP	56	144	5
TAP	56	192	1
TAP	56	240	1
TAP	56	288	6
TAP	56	336	6
TAP	57	0	0
TAP	57	0	7
TAP	57	48	0
TAP	57	48	7
TAP	57	96	0
TAP	57	96	7
TAP	57	144	0
TAP	57	144	7
XTP	57	192	0
XTP	57	192	7
XTP	57	264	1
XTP	57	264	6
XST	57	336	2
SUR	57	336	2	96	240	5
XTP	57	336	5
THO	59	0	0	192	C	0	M1
BRK	59	288	0
BRK	59	288	7
STR	60	0	1
SI_	60	0	1	96	48	3
STR	60	96	0
SI_	60	96	0	96	48	4
STR	60	192	1
SI_	60	192	1	96	48	3
STR	60	288	7
SI_	60	288	7	96	48	5
STR	61	0	0
SI_	61	0	0	96	48	4
TAP	61	96	7
TAP	61	192	6
TAP	61	192	7
TAP	61	240	0
TAP	61	240	5
TAP	61	288	1
TAP	61	288	4
STR	62	0	6
SI_	62	0	6	96	48	4
STR	62	96	7
SI_	62	96	7	96	48	3
STR	62	192	6
SI_	62	192	6	96	48	4
STR	62	288	0
SI_	62	288	0	96	48	2
STR	63	0	7
SI_	63	0	7	96	48	3
TAP	63	96	0
TAP	63	192	0
TAP	63	192	1
TAP	63	240	2
TAP	63	240	7
TAP	63	288	3
TAP	63	288	6
STR	64	0	2
SI_	64	0	2	96	48	0
STR	64	96	3
SI_	64	96	3	96	48	7
STR	64	192	2
SI_	64	192	2	96	48	0
STR	64	288	4
SI_	64	288	4	96	48	6
STR	65	0	3
SI_	65	0	3	96	48	7
TAP	65	96	4
TAP	65	192	4
TAP	65	192	5
TAP	65	240	3
TAP	65	240	6
TAP	65	288	2
TAP	65	288	7
STR	66	0	5
SI_	66	0	5	96	48	7
STR	66	96	3
SI_	66	96	3	96	48	0
STR	66	192	4
SI_	66	192	4	96	48	7
STR	66	288	2
SI_	66	288	2	96	48	0
TAP	67	0	3
TAP	67	96	4
TAP	67	96	5
TAP	67	192	0
TAP	67	192	7
TAP	67	240	1
TAP	67	240	6
BRK	67	288	2
BRK	67	288	5
STR	68	0	2
SI_	68	0	2	96	48	4
STR	68	96	5
SI_	68	96	5	96	48	1
STR	68	192	2
SI_	68	192	2	96	48	4
STR	68	288	6
SI_	68	288	6	96	48	0
STR	69	0	1
SI_	69	0	1	96	48	5
TAP	69	96	4
TAP	69	192	6
TAP	69	240	5
TAP	69	240	7
TAP	69	288	0
TAP	69	288	4
STR	70	0	5
SI_	70	0	5	96	48	3
STR	70	96	2
SI_	70	96	2	96	48	6
STR	70	192	5
SI_	70	192	5	96	48	3
STR	70	288	1
SI_	70	288	1	96	48	7
STR	71	0	6
SI_	71	0	6	96	48	2
TAP	71	96	3
TAP	71	192	1
TAP	71	240	0
TAP	71	240	2
TAP	71	288	3
TAP	71	288	7
STR	72	0	0
SI_	72	0	0	96	48	5
TAP	72	0	6
STR	72	96	4
SI_	72	96	4	96	48	1
STR	72	192	0
SI_	72	192	0	96	48	5
STR	72	288	4
SI_	72	288	4	96	48	1
STR	73	0	0
SI_	73	0	0	96	48	5
TAP	73	96	4
TAP	73	192	2
TAP	73	240	1
TAP	73	240	3
TAP	73	288	0
TAP	73	288	4
TAP	74	0	1
STR	74	0	7
SI_	74	0	7	96	48	2
STR	74	96	3
SI_	74	96	3	96	48	6
STR	74	192	7
SI_	74	192	7	96	48	2
STR	74	288	3
SI_	74	288	3	96	48	6
STR	75	0	7
SI_	75	0	7	96	48	2
TAP	75	96	3
TAP	75	192	4
TAP	75	240	4
BRK	75	288	2
BRK	75	288	6
HLD	76	0	0	96
HLD	76	0	1	96
TAP	76	144	0
TAP	76	144	1
TAP	76	192	2
TAP	76	192	7
TAP	76	288	4
TAP	76	288	5
HLD	77	0	6	96
HLD	77	0	7	96
TAP	77	144	6
TAP	77	144	7
TAP	77	192	0
TAP	77	192	5
TAP	77	288	2
TAP	77	288	3
HLD	78	0	4	96
HLD	78	0	5	96
TAP	78	144	4
TAP	78	144	5
TAP	78	192	3
TAP	78	192	6
TAP	78	288	0
TAP	78	288	1
HLD	79	0	0	96
HLD	79	0	7	96
TAP	79	144	0
TAP	79	144	7
BRK	79	192	1
BRK	79	192	6
BRK	79	240	1
BRK	79	240	6
BRK	79	288	1
BRK	79	288	6
BRK	79	336	1
BRK	79	336	6
TAP	80	0	2
TAP	80	24	3
TAP	80	48	2
TAP	80	72	3
BRK	80	96	2
TAP	80	192	5
TAP	80	216	4
TAP	80	240	5
TAP	80	264	4
BRK	80	288	5
TAP	81	0	1
TAP	81	24	2
TAP	81	48	1
TAP	81	72	2
BRK	81	96	1
TAP	81	192	6
TAP	81	216	5
TAP	81	240	6
TAP	81	264	5
BRK	81	288	6
TAP	82	0	3
TAP	82	48	2
TAP	82	96	5
TAP	82	144	6
TAP	82	192	2
TAP	82	240	1
TAP	82	288	4
TAP	82	336	5
TAP	83	0	0
TAP	83	24	6
TAP	83	48	0
TAP	83	72	6
TAP	83	96	0
TAP	83	120	6
TAP	83	144	0
TAP	83	168	6
TAP	83	192	7
STR	83	240	7
SF_	83	240	7	96	48	3
BRK	84	288	6

T_REC_TAP	281
T_REC_BRK	31
T_REC_XTP	11
T_REC_HLD	39
T_REC_XHO	18
T_REC_STR	58
T_REC_BST	0
T_REC_XST	2
T_REC_TTP	20
T_REC_THO	2
T_REC_SLD	60
T_REC_ALL	522
T_NUM_TAP	372
T_NUM_BRK	31
T_NUM_HLD	59
T_NUM_SLD	60
T_NUM_ALL	522
T_JUDGE_TAP	403
T_JUDGE_HLD	151
T_JUDGE_SLD	60
T_JUDGE_ALL	614
TTM_EACHPAIRS	119
TTM_SCR_TAP	186000
TTM_SCR_BRK	80600
TTM_SCR_HLD	59000
TTM_SCR_SLD	90000
TTM_SCR_ALL	415600
TTM_SCR_S	400150
TTM_SCR_SS	412500
TTM_RAT_ACV	10075

