VERSION	0.00.00	1.03.00
FES_MODE	0
BPM_DEF	180.000	180.000	180.000	180.000
MET_DEF	4	4
RESOLUTION	384
CLK_DEF	384
COMPATIBLE_CODE	MA2

BPM	0	0	180.000
MET	0	0	4	4

HLD	2	0	2	384
HLD	3	0	3	384
HLD	4	0	4	384
TAP	5	0	5
TAP	6	0	6
TAP	6	192	6
TAP	6	192	7
TAP	7	0	1
TAP	7	192	0
TAP	7	192	1
TAP	8	0	7
TAP	8	96	7
TAP	8	192	0
TAP	8	288	0
STR	9	0	0
SI_	9	0	0	96	144	4
STR	9	0	7
SI_	9	0	7	96	144	3
TAP	10	0	2
TAP	10	96	2
TAP	10	192	2
TAP	10	192	3
TAP	11	0	5
TAP	11	96	5
TAP	11	192	4
TAP	11	192	5
TAP	12	0	2
TAP	12	96	2
TAP	12	192	2
TAP	12	192	3
TAP	13	0	4
TAP	13	96	4
TAP	13	192	3
TAP	13	192	5
TAP	14	0	6
TAP	14	96	6
TAP	14	192	6
TAP	14	192	7
TAP	15	0	1
TAP	15	96	1
TAP	15	192	0
TAP	15	192	1
TAP	16	0	6
TAP	16	96	6
TAP	16	192	6
TAP	16	192	7
TAP	17	0	0
TAP	17	0	7
TAP	17	96	0
TAP	17	96	7
XTP	17	192	1
XTP	17	192	6
HLD	18	0	2	96
HLD	18	0	3	96
TAP	18	192	2
TAP	18	192	3
HLD	19	0	4	96
HLD	19	0	5	96
TAP	19	192	4
TAP	19	192	5
HLD	20	0	2	96
HLD	20	0	3	96
TAP	20	192	2
TAP	20	192	3
TAP	21	0	4
TAP	21	0	5
TAP	21	96	4
TAP	21	96	5
TAP	21	192	3
TAP	21	192	6
TAP	22	0	7
TAP	22	96	7
TAP	22	192	6
TAP	22	288	6
TAP	23	0	5
TAP	23	96	5
TAP	23	192	4
TAP	23	288	4
HLD	24	0	3	96
HLD	24	0	4	96
HLD	24	192	2	96
HLD	24	192	5	96
TAP	25	0	1
TAP	25	0	6
TAP	25	96	1
TAP	25	96	6
BRK	25	192	1
BRK	25	192	6
TAP	26	0	0
TAP	26	96	0
TAP	26	192	1
TAP	26	288	1
TAP	27	0	2
TAP	27	96	2
TAP	27	192	3
TAP	27	288	3
HLD	28	0	3	96
HLD	28	0	4	96
HLD	28	192	2	96
HLD	28	192	5	96
XTP	29	0	1
XTP	29	0	6
XTP	29	96	1
XTP	29	96	6
XTP	29	192	1
XTP	29	192	6
HLD	30	0	2	192
TAP	30	192	3
TAP	30	288	2
TAP	30	288	3
HLD	31	0	5	192
TAP	31	192	4
TAP	31	288	4
TAP	31	288	5
HLD	32	0	2	192
TAP	32	192	3
TAP	32	288	2
TAP	32	288	3
TAP	33	0	3
TAP	33	0	4
TAP	33	96	3
TAP	33	96	4
TAP	33	192	2
TAP	33	192	5
TAP	34	0	1
TAP	34	96	1
TAP	34	192	0
TAP	35	0	6
TAP	35	96	6
TAP	35	192	7
XTP	36	0	0
XTP	36	96	0
XTP	36	192	7
XTP	36	288	7
XST	37	0	1
SI_	37	0	1	96	144	4
XST	37	0	6
SI_	37	0	6	96	144	3
TAP	38	0	2
TAP	38	96	2
TAP	38	192	3
TAP	39	0	5
TAP	39	96	5
TAP	39	192	4
TAP	40	0	3
TAP	40	96	3
TAP	40	192	4
TAP	40	288	4
TAP	41	0	3
TAP	41	0	4
TAP	41	96	3
TAP	41	96	4
XTP	41	192	2
XTP	41	192	5
STR	42	0	1
SI_	42	0	1	96	144	5
STR	43	0	6
SI_	43	0	6	96	144	3
STR	44	0	2
SI_	44	0	2	96	144	7
STR	45	0	6
SI_	45	0	6	96	144	2
TTP	46	0	1	B	0	L1
TTP	46	192	3	B	0	L1
TTP	46	192	3	E	0	L1
TTP	47	0	6	B	0	L1
TTP	47	192	4	B	0	L1
TTP	47	192	5	E	0	L1
TTP	48	0	1	B	0	L1
TTP	48	192	3	B	0	L1
TTP	48	192	3	E	0	L1
TTP	49	0	6	B	0	L1
TTP	49	0	6	E	0	L1
TTP	49	192	2	B	0	L1
TTP	49	192	3	B	0	L1
XHO	50	0	4	96
XHO	50	0	5	96
TAP	50	192	3
TAP	50	192	6
XHO	51	0	2	96
XHO	51	0	3	96
TAP	51	192	1
TAP	51	192	4
XHO	52	0	0	96
XHO	52	0	1	96
TAP	52	192	2
TAP	52	192	7
XHO	53	0	0	96
XHO	53	0	7	96
TAP	53	192	1
TAP	53	192	6
TAP	54	0	2
TAP	54	0	5
TAP	54	144	5
TAP	54	192	5
TAP	54	336	6
TAP	55	0	6
TAP	55	144	7
TAP	55	192	7
TAP	55	336	0
TAP	56	0	0
TAP	56	96	0
TAP	56	96	7
TAP	56	192	0
TAP	56	192	1
TAP	56	288	0
TAP	56	288	7
TAP	57	0	6
TAP	57	0	7
TAP	57	96	0
TAP	57	96	7
BST	57	192	1
SLR	57	192	1	96	432	0
BST	57	192	6
SLL	57	192	6	96	432	7
TAP	60	0	1
TAP	60	96	1
TAP	60	192	0
TAP	60	192	1
TAP	60	288	0
TAP	60	288	1
TAP	61	0	2
TAP	61	96	3
TAP	61	192	4
TAP	61	288	5
TAP	62	0	6
TAP	62	96	6
TAP	62	192	6
TAP	62	192	7
TAP	62	288	6
TAP	62	288	7
TAP	63	0	5
TAP	63	96	3
TAP	63	96	4
XTP	63	192	2
XTP	63	192	5
TAP	64	0	6
TAP	64	96	6
TAP	64	192	6
TAP	64	192	7
TAP	64	288	6
TAP	64	288	7
TAP	65	0	5
TAP	65	96	4
TAP	65	192	3
TAP	65	288	2
TAP	66	0	1
TAP	66	96	1
TAP	66	192	0
TAP	66	192	1
TAP	66	288	0
TAP	66	288	1
TAP	67	0	0
TAP	67	0	7
TAP	67	96	0
TAP	67	96	7
XTP	67	192	1
XTP	67	192	6
TAP	68	0	1
TAP	68	96	0
TAP	68	96	1
TAP	68	192	6
TAP	68	288	6
TAP	68	288	7
TAP	69	0	5
TAP	69	96	4
TAP	69	96	5
TAP	69	192	3
TAP	69	288	2
TAP	69	288	4
TAP	70	0	1
TAP	70	96	0
TAP	70	96	1
TAP	70	192	6
TAP	70	288	6
TAP	70	288	7
TAP	71	0	0
TAP	71	0	7
TAP	71	96	0
TAP	71	96	7
BRK	71	192	1
BRK	71	192	6
TAP	72	0	5
TAP	72	96	4
TAP	72	96	5
TAP	72	192	2
TAP	72	288	2
TAP	72	288	3
TAP	73	0	1
TAP	73	96	0
TAP	73	96	1
TAP	73	192	7
TAP	73	288	0
TAP	73	288	6
TAP	74	0	5
TAP	74	96	3
TAP	74	96	4
TAP	74	192	2
TAP	74	192	3
TAP	74	288	3
TAP	74	288	4
TAP	75	0	2
TAP	75	0	5
TAP	75	96	2
TAP	75	96	5
BRK	75	192	1
BRK	75	192	6
HLD	76	0	2	96
HLD	76	0	3	96
TAP	76	192	2
TAP	76	240	2
TAP	76	288	2
HLD	77	0	4	96
HLD	77	0	5	96
TAP	77	192	5
TAP	77	240	5
TAP	77	288	5
HLD	78	0	6	96
HLD	78	0	7	96
TAP	78	192	6
TAP	78	240	6
TAP	78	288	6
HLD	79	0	0	96
HLD	79	0	1	96
TAP	79	192	1
TAP	79	240	1
TAP	79	288	1
TAP	80	0	0
TAP	80	0	7
TAP	80	144	6
TAP	80	192	6
TAP	80	336	5
TAP	81	0	5
TAP	81	144	4
TAP	81	192	4
TAP	81	336	3
TAP	81	336	4
TAP	82	0	3
TAP	82	0	4
TAP	82	96	2
TAP	82	96	5
TAP	82	192	1
TAP	82	192	6
TAP	82	288	0
TAP	82	288	7
TAP	83	0	0
TAP	83	48	0
TAP	83	96	7
TAP	83	144	7
TAP	83	192	0
TAP	83	192	7
TAP	83	240	0
TAP	83	240	7
TAP	83	336	1
TAP	83	336	6
TTP	84	288	0	C	0	L1

T_REC_TAP	262
T_REC_BRK	6
T_REC_XTP	18
T_REC_HLD	28
T_REC_XHO	8
T_REC_STR	6
T_REC_BST	2
T_REC_XST	2
T_REC_TTP	14
T_REC_THO	0
T_REC_SLD	10
T_REC_ALL	356
T_NUM_TAP	302
T_NUM_BRK	8
T_NUM_HLD	36
T_NUM_SLD	10
T_NUM_ALL	356
T_JUDGE_TAP	310
T_JUDGE_HLD	96
T_JUDGE_SLD	10
T_JUDGE_ALL	416
TTM_EACHPAIRS	102
TTM_SCR_TAP	151000
TTM_SCR_BRK	20800
TTM_SCR_HLD	36000
TTM_SCR_SLD	15000
TTM_SCR_ALL	222800
TTM_SCR_S	215350
TTM_SCR_SS	222000
TTM_RAT_ACV	10036

