VERSION	0.00.00	1.03.00
FES_MODE	0
BPM_DEF	180.000	180.000	180.000	180.000
MET_DEF	4	4
RESOLUTION	384
CLK_DEF	384
COMPATIBLE_CODE	MA2

BPM	0	0	180.000
MET	0	0	4	4

TAP	2	0	3
TAP	3	0	3
TAP	4	0	4
TAP	5	0	4
TAP	6	0	3
TAP	7	0	3
TAP	7	0	4
TAP	8	0	4
XTP	9	0	3
XTP	9	0	4
TAP	10	0	3
TAP	10	192	3
TAP	11	0	3
TAP	12	0	2
TAP	12	192	2
TAP	13	0	2
TAP	14	0	1
TAP	14	192	1
TAP	15	0	1
TAP	16	0	0
TAP	16	192	0
TAP	17	0	0
TAP	17	0	7
TAP	18	0	6
TAP	18	192	6
TAP	19	0	6
TAP	20	0	5
TAP	20	192	5
TAP	21	0	5
TAP	22	0	4
TAP	22	192	4
TAP	23	0	4
TAP	24	0	3
TAP	24	192	3
XTP	25	0	3
XTP	25	0	4
TTP	26	0	4	B	0	L1
TTP	27	0	3	B	0	L1
TTP	28	0	5	B	0	L1
TTP	29	0	0	C	0	L1
TAP	30	0	0
TAP	30	192	0
TAP	31	0	0
TAP	32	0	7
TAP	32	192	7
BRK	33	0	7
TAP	34	0	0
TAP	35	0	0
TAP	35	0	1
XTP	36	0	2
TAP	37	0	2
TAP	37	0	3
TAP	38	0	4
TAP	39	0	4
TAP	39	0	5
XHO	40	0	3	384
XHO	40	0	4	384
TTP	42	0	3	B	0	L1
TTP	43	0	5	B	0	L1
TTP	44	0	2	B	0	L1
TTP	45	0	4	B	0	L1
TTP	46	0	3	B	0	L1
TTP	47	0	6	B	0	L1
TTP	48	0	1	B	0	L1
TTP	49	0	0	C	0	L1
STR	50	0	7
SI_	50	0	7	96	288	4
STR	52	0	0
SI_	52	0	0	96	288	3
XHO	54	0	4	384
XHO	56	0	3	384
BRK	58	0	3
BRK	58	0	4
XTP	60	0	7
TAP	60	96	7
TAP	60	192	7
TAP	61	0	6
TAP	61	96	6
TAP	61	192	6
TAP	62	0	5
TAP	62	96	5
TAP	62	192	5
TAP	63	0	4
TAP	63	96	4
XTP	63	192	3
XTP	63	192	4
TAP	64	0	3
TAP	64	96	3
TAP	64	192	3
TAP	65	0	2
TAP	65	96	2
TAP	65	192	2
TAP	66	0	1
TAP	66	96	1
TAP	66	192	1
HLD	67	0	0	192
HLD	67	0	7	192
TAP	68	0	0
TAP	68	96	0
TAP	68	192	0
TAP	69	0	1
TAP	69	96	1
TAP	69	192	1
TAP	70	0	2
TAP	70	96	2
TAP	70	192	2
TAP	71	0	3
TAP	71	96	3
XTP	71	192	3
XTP	71	192	4
TAP	72	0	4
TAP	72	96	4
TAP	72	192	4
TAP	73	0	5
TAP	73	96	5
TAP	73	192	5
TAP	74	0	6
TAP	74	96	6
TAP	74	192	6
TAP	75	0	7
TAP	75	96	7
XTP	75	192	0
XTP	75	192	7
HLD	76	0	6	192
HLD	76	0	7	192
HLD	77	0	4	192
HLD	77	0	5	192
HLD	78	0	2	192
HLD	78	0	3	192
HLD	79	0	0	192
HLD	79	0	1	192
TAP	80	0	0
TAP	80	0	7
TAP	80	96	0
TAP	80	96	7
TAP	80	192	0
TAP	80	192	7
TAP	81	0	1
TAP	81	0	6
TAP	81	96	1
TAP	81	96	6
TAP	81	192	1
TAP	81	192	6
TAP	82	0	2
TAP	82	0	5
TAP	82	96	2
TAP	82	96	5
TAP	82	192	2
TAP	82	192	5
TAP	83	0	3
TAP	83	0	4
TAP	83	96	3
TAP	83	96	4
TAP	83	192	3
TAP	83	192	4
HLD	83	288	3	384
HLD	83	288	4	384

T_REC_TAP	110
T_REC_BRK	3
T_REC_XTP	12
T_REC_HLD	12
T_REC_XHO	4
T_REC_STR	2
T_REC_BST	0
T_REC_XST	0
T_REC_TTP	12
T_REC_THO	0
T_REC_SLD	2
T_REC_ALL	157
T_NUM_TAP	136
T_NUM_BRK	3
T_NUM_HLD	16
T_NUM_SLD	2
T_NUM_ALL	157
T_JUDGE_TAP	139
T_JUDGE_HLD	88
T_JUDGE_SLD	2
T_JUDGE_ALL	229
TTM_EACHPAIRS	30
TTM_SCR_TAP	68000
TTM_SCR_BRK	7800
TTM_SCR_HLD	16000
TTM_SCR_SLD	3000
TTM_SCR_ALL	94800
TTM_SCR_S	91700
TTM_SCR_SS	94500
TTM_RAT_ACV	10031

