VERSION	0.00.00	1.03.00
FES_MODE	0
BPM_DEF	145.000	145.000	145.000	145.000
MET_DEF	4	4
RESOLUTION	384
CLK_DEF	384
COMPATIBLE_CODE	MA2

BPM	0	0	145.000
MET	0	0	4	4

TAP	1	0	0
TAP	1	96	2
TAP	1	96	4
TAP	1	144	5
TAP	1	160	4
TAP	1	216	3
TAP	1	216	6
TAP	1	264	2
TAP	1	264	4
TAP	1	312	0
TAP	1	312	3
TAP	2	0	5
TAP	2	96	4
TAP	2	96	6
TAP	2	144	2
TAP	2	160	3
TAP	2	192	1
TAP	2	192	4
TAP	2	264	3
TAP	2	264	6
TAP	2	336	1
TAP	2	336	5
TAP	3	0	7
TAP	3	96	3
TAP	3	96	5
TAP	3	144	2
TAP	3	160	3
TAP	3	216	1
TAP	3	216	4
TAP	3	264	3
TAP	3	264	5
TAP	3	312	4
TAP	3	312	7
TAP	4	0	2
TAP	4	48	5
TAP	4	72	4
TAP	4	120	1
TAP	4	144	0
TAP	4	192	4
TAP	4	192	5
TAP	4	240	3
TAP	4	240	6
TAP	4	288	2
TAP	4	304	3
TAP	4	320	2
TAP	4	336	3
TAP	5	0	0
HLD	5	0	4	96
TAP	5	96	0
TTP	5	144	1	E	0	M1
TTP	5	160	1	B	0	M1
TTP	5	176	2	B	0	M1
TTP	5	192	6	B	0	M1
TTP	5	208	5	B	0	M1
TTP	5	216	4	B	0	M1
TAP	5	264	0
TAP	5	312	1
TAP	5	312	7
TAP	6	0	2
HLD	6	0	4	96
TAP	6	96	2
TTP	6	144	3	E	0	M1
TTP	6	160	3	B	0	M1
TTP	6	176	4	B	0	M1
HLD	6	192	6	72
HLD	6	264	5	72
TAP	6	336	4
HLD	7	0	3	96
TAP	7	0	7
TAP	7	96	7
TTP	7	144	7	E	0	M1
TTP	7	160	6	B	0	M1
TTP	7	176	5	B	0	M1
TTP	7	192	1	B	0	M1
TTP	7	208	2	B	0	M1
TTP	7	216	3	B	0	M1
TAP	7	264	7
TAP	7	312	0
TAP	7	312	6
TAP	8	0	3
TAP	8	0	5
TAP	8	48	2
TAP	8	72	3
TAP	8	120	6
TAP	8	144	7
TAP	8	192	3
TAP	8	192	5
TAP	8	240	2
TAP	8	240	6
TAP	8	288	0
TAP	8	304	7
TAP	8	336	1
TAP	8	336	6
TAP	9	0	3
TAP	9	0	5
TAP	9	48	2
TAP	9	72	2
TAP	9	96	4
TAP	9	144	6
TAP	9	192	3
TAP	9	192	5
TAP	9	240	0
TAP	9	288	2
TAP	9	288	4
TAP	9	336	6
TAP	10	0	3
TAP	10	0	5
TAP	10	48	2
TAP	10	72	2
TAP	10	96	4
TAP	10	144	6
TAP	10	192	3
TAP	10	192	5
TAP	10	240	0
STR	10	288	2
SCL	10	288	2	96	48	0
TAP	10	288	4
TAP	10	336	4
TAP	11	0	3
TAP	11	48	4
TAP	11	96	3
STR	11	96	5
SCR	11	96	5	96	48	7
TAP	11	144	3
TAP	11	192	4
STR	11	240	3
SXR	11	240	3	96	144	4
TAP	11	288	4
TAP	11	336	4
TAP	12	0	5
TAP	12	48	5
TAP	12	96	5
TAP	12	144	5
TTP	12	192	6	B	0	M1
TTP	12	192	7	E	0	M1
TTP	12	240	1	B	0	M1
TTP	12	240	1	E	0	M1
TTP	12	288	5	E	0	M1
TTP	12	336	3	E	0	M1
TAP	13	0	2
TAP	13	0	4
TAP	13	48	5
TAP	13	72	5
TAP	13	96	3
TAP	13	144	1
TAP	13	192	2
TAP	13	192	4
TAP	13	240	7
TAP	13	288	3
TAP	13	288	5
TAP	13	336	1
TAP	14	0	2
TAP	14	0	4
TAP	14	48	5
TAP	14	72	5
TAP	14	96	3
TAP	14	144	1
TAP	14	192	2
TAP	14	192	4
TAP	14	240	7
TAP	14	288	3
STR	14	288	5
SCR	14	288	5	96	48	7
TAP	14	336	3
TAP	15	0	4
TAP	15	48	3
STR	15	96	2
SCL	15	96	2	96	48	0
TAP	15	96	4
TAP	15	144	4
TAP	15	192	3
STR	15	240	4
SXL	15	240	4	96	144	3
TAP	15	288	3
TAP	15	336	3
TAP	16	0	2
TAP	16	48	2
TAP	16	96	2
TAP	16	144	2
TTP	16	192	1	B	0	M1
TTP	16	192	1	E	0	M1
TTP	16	240	6	B	0	M1
TTP	16	240	7	E	0	M1
TTP	16	288	3	E	0	M1
TTP	16	336	5	E	0	M1
TAP	17	0	3
TAP	17	0	5
TAP	17	48	2
TAP	17	72	2
TAP	17	96	4
HLD	17	144	5	48
TAP	17	192	3
TAP	17	216	3
TAP	17	240	4
TAP	17	264	2
TAP	17	288	6
TAP	17	336	4
TAP	18	0	3
TAP	18	0	5
TAP	18	48	2
TAP	18	72	2
TAP	18	96	4
TAP	18	144	6
TAP	18	192	5
TAP	18	216	5
TAP	18	240	3
TAP	18	264	4
STR	18	288	2
SCL	18	288	2	96	48	0
TAP	18	336	4
TAP	19	0	3
TAP	19	48	4
TAP	19	96	3
STR	19	96	5
SCR	19	96	5	96	48	7
TAP	19	144	3
TAP	19	192	4
STR	19	240	3
SXR	19	240	3	96	144	4
TAP	19	288	4
TAP	19	336	4
TAP	20	0	5
TAP	20	48	5
TAP	20	96	5
TAP	20	144	5
TTP	20	192	6	B	0	M1
TTP	20	192	7	E	0	M1
TTP	20	240	1	B	0	M1
TTP	20	240	1	E	0	M1
TTP	20	288	5	E	0	M1
TTP	20	336	3	E	0	M1
TAP	21	0	2
TAP	21	0	4
TAP	21	48	5
TAP	21	72	5
TAP	21	96	3
HLD	21	144	2	48
TAP	21	192	4
TAP	21	216	4
TAP	21	240	3
TAP	21	264	5
TAP	21	288	1
TAP	21	336	3
TAP	22	0	2
TAP	22	0	4
TAP	22	48	5
TAP	22	72	5
TAP	22	96	3
TAP	22	144	1
TAP	22	192	2
TAP	22	216	2
TAP	22	240	4
TAP	22	264	3
STR	22	288	5
SCR	22	288	5	96	48	7
TAP	22	336	3
TAP	23	0	4
TAP	23	48	3
STR	23	96	2
SCL	23	96	2	96	48	0
TAP	23	96	4
TAP	23	144	4
TAP	23	192	3
STR	23	240	4
SXL	23	240	4	96	144	3
TAP	23	288	3
TAP	23	336	3
TAP	24	0	2
TAP	24	48	2
TAP	24	96	2
TAP	24	144	2
TTP	24	192	3	E	0	M1
TTP	24	240	4	E	0	M1
TTP	24	288	5	E	0	M1
HLD	25	0	2	192
STR	25	0	3
SI_	25	0	3	96	48	0
TAP	25	96	3
TAP	25	240	7
TAP	25	288	3
STR	26	0	4
SI_	26	0	4	96	48	7
HLD	26	0	5	192
TAP	26	96	4
TAP	26	240	2
TAP	26	288	4
TAP	26	320	4
TAP	26	336	3
HLD	27	0	2	192
STR	27	0	3
SI_	27	0	3	96	48	0
TAP	27	96	3
TAP	27	240	7
TAP	27	288	3
STR	28	0	4
SI_	28	0	4	96	48	7
HLD	28	0	5	192
TAP	28	96	4
TAP	28	240	2
TAP	28	288	4
TAP	28	320	4
TAP	28	336	3
TAP	28	368	3
STR	29	0	4
SCR	29	0	4	96	48	7
HLD	29	96	2	96
TAP	29	96	4
TAP	29	240	7
TAP	29	288	3
STR	30	0	4
SI_	30	0	4	96	48	7
HLD	30	0	5	192
TAP	30	96	4
TAP	30	240	2
TAP	30	288	4
TAP	30	320	4
TAP	30	336	3
HLD	31	0	2	192
STR	31	0	3
SI_	31	0	3	96	48	0
TAP	31	96	3
TAP	31	240	7
TAP	31	288	3
TAP	32	0	4
TAP	32	0	5
TAP	32	48	6
TAP	32	72	7
TAP	32	120	2
TAP	32	144	3
XTP	32	192	1
XTP	32	192	4
XTP	32	240	1
XTP	32	240	4
XTP	32	288	3
XTP	32	288	6
XTP	32	336	1
XTP	32	336	4
TAP	33	0	0
TAP	33	24	7
TAP	33	48	1
TAP	33	72	6
TAP	33	96	0
TAP	33	120	7
TAP	33	144	2
TAP	33	168	5
TTP	33	192	1	E	0	M1
TTP	33	216	7	E	0	M1
TTP	33	240	2	E	0	M1
TTP	33	264	6	E	0	M1
TTP	33	288	0	B	0	M1
TTP	33	312	7	B	0	M1
TTP	33	336	3	E	0	M1
TTP	33	360	5	E	0	M1
TAP	34	0	0
TAP	34	24	7
TAP	34	48	2
TAP	34	72	5
TAP	34	96	1
TAP	34	120	6
TAP	34	144	3
TAP	34	168	4
TTP	34	192	1	E	0	M1
TTP	34	216	7	E	0	M1
TTP	34	240	3	E	0	M1
TTP	34	264	5	E	0	M1
TTP	34	288	0	B	0	M1
TTP	34	312	7	B	0	M1
TTP	34	336	2	B	0	M1
TTP	34	360	5	B	0	M1
TAP	35	0	3
TAP	35	24	4
TAP	35	48	1
TAP	35	72	6
TAP	35	96	3
TAP	35	120	4
TAP	35	144	2
TAP	35	168	5
TTP	35	192	3	E	0	M1
TTP	35	216	5	E	0	M1
TTP	35	240	2	E	0	M1
TTP	35	264	6	E	0	M1
TTP	35	288	2	B	0	M1
TTP	35	312	5	B	0	M1
TTP	35	336	1	E	0	M1
TTP	35	360	7	E	0	M1
TAP	36	0	0
TAP	36	24	7
TAP	36	48	1
TAP	36	72	6
TAP	36	96	0
TAP	36	120	7
TAP	36	144	2
TAP	36	168	5
TTP	36	192	1	E	0	M1
TTP	36	216	7	E	0	M1
TTP	36	240	2	E	0	M1
TTP	36	264	6	E	0	M1
TTP	36	288	3	E	0	M1
TTP	36	312	5	E	0	M1
TTP	36	336	2	B	0	M1
TTP	36	360	5	B	0	M1
TAP	37	0	0
TAP	37	24	7
TAP	37	48	1
TAP	37	72	6
TAP	37	96	0
TAP	37	120	7
TAP	37	144	2
TAP	37	168	5
TTP	37	192	1	E	0	M1
TTP	37	216	7	E	0	M1
TTP	37	240	2	E	0	M1
TTP	37	264	6	E	0	M1
TTP	37	288	0	B	0	M1
TTP	37	312	7	B	0	M1
TTP	37	336	3	E	0	M1
TTP	37	360	5	E	0	M1
TAP	38	0	0
TAP	38	24	7
TAP	38	48	2
TAP	38	72	5
TAP	38	96	1
TAP	38	120	6
TAP	38	144	3
TAP	38	168	4
TTP	38	192	1	E	0	M1
TTP	38	216	7	E	0	M1
TTP	38	240	3	E	0	M1
TTP	38	264	5	E	0	M1
TTP	38	288	0	B	0	M1
TTP	38	312	7	B	0	M1
TTP	38	336	2	B	0	M1
TTP	38	360	5	B	0	M1
TAP	39	0	3
TAP	39	24	4
TAP	39	48	1
TAP	39	72	6
TAP	39	96	3
TAP	39	120	4
TAP	39	144	2
TAP	39	168	5
TTP	39	192	3	E	0	M1
TTP	39	216	5	E	0	M1
TTP	39	240	2	E	0	M1
TTP	39	264	6	E	0	M1
TTP	39	288	2	B	0	M1
TTP	39	312	5	B	0	M1
TTP	39	336	1	E	0	M1
TTP	39	360	7	E	0	M1
TAP	40	0	0
TAP	40	24	7
TAP	40	48	2
TAP	40	72	5
TAP	40	96	0
TAP	40	120	7
TAP	40	144	2
TAP	40	192	3
TAP	40	192	4
TAP	40	240	5
TAP	40	240	6
STR	40	288	0
SUL	40	288	0	96	1152	7
STR	40	288	7
SCL	40	288	7	96	1152	0
TAP	40	336	1
TAP	40	336	2
BRK	41	0	0
BRK	41	0	7
TTP	45	0	0	E	0	M1
TTP	45	24	7	B	0	M1
TTP	45	48	0	C	0	M1
TTP	45	72	3	B	0	M1
TTP	45	96	4	E	0	M1
HLD	45	240	4	72
TTP	46	0	0	E	0	M1
TTP	46	24	0	B	0	M1
TTP	46	48	0	C	0	M1
TTP	46	72	4	B	0	M1
TTP	46	96	4	E	0	M1
HLD	46	240	3	72
TTP	47	0	4	E	0	M1
TTP	47	24	3	B	0	M1
TTP	47	48	0	C	0	M1
TTP	47	72	7	B	0	M1
TTP	47	96	0	E	0	M1
TAP	47	240	3
TAP	47	240	4
TAP	47	288	3
TAP	47	288	4
HLD	48	0	2	48
HLD	48	0	5	48
TAP	48	72	3
TAP	48	72	4
TAP	48	120	2
TAP	48	144	2
TAP	48	168	3
TAP	48	192	1
TAP	48	216	4
TAP	48	240	3
TAP	48	264	6
BRK	48	288	4
TAP	49	0	0
HLD	49	0	7	192
TTP	49	96	4	E	0	M1
HLD	49	192	0	192
TTP	49	288	4	E	0	M1
HLD	50	0	7	192
TTP	50	96	4	E	0	M1
HLD	50	192	0	192
TTP	50	288	4	E	0	M1
HLD	51	0	7	192
TTP	51	96	3	B	0	M1
TTP	51	96	4	E	0	M1
HLD	51	192	0	192
TTP	51	288	4	B	0	M1
TTP	51	288	4	E	0	M1
HLD	52	0	7	192
TTP	52	96	3	B	0	M1
TTP	52	96	3	E	0	M1
TTP	52	96	4	E	0	M1
HLD	52	192	0	192
TTP	52	288	4	B	0	M1
TTP	52	288	4	E	0	M1
TTP	52	288	5	E	0	M1
TAP	53	0	7
TAP	53	48	6
TAP	53	96	5
TAP	53	144	4
TAP	53	192	0
TAP	53	240	1
TAP	53	288	2
TAP	53	336	3
TAP	54	0	4
TAP	54	24	4
TAP	54	48	5
TAP	54	72	5
TAP	54	96	6
TAP	54	120	6
TAP	54	144	7
TAP	54	168	7
TAP	54	192	0
TAP	54	216	0
TAP	54	240	1
TAP	54	264	1
TAP	54	288	2
TAP	54	312	2
TAP	54	336	3
TAP	54	360	3
XTP	55	0	4
TAP	55	12	5
TAP	55	24	6
TAP	55	36	7
TAP	55	48	0
TAP	55	60	1
TAP	55	72	2
TAP	55	84	3
XTP	55	96	4
TAP	55	108	5
TAP	55	120	6
TAP	55	132	7
TAP	55	144	0
TAP	55	156	1
TAP	55	168	2
TAP	55	180	3
XTP	55	192	4
TAP	55	204	5
TAP	55	216	6
TAP	55	228	7
TAP	55	240	0
TAP	55	252	1
TAP	55	264	2
TAP	55	276	3
XTP	55	288	4
TAP	55	300	5
TAP	55	312	6
TAP	55	324	7
TAP	55	336	0
TAP	55	348	1
TAP	55	360	2
TAP	55	372	3
TTP	56	0	0	C	1	M1
TTP	56	192	1	B	0	M1
TTP	56	216	0	C	0	M1
TTP	56	240	5	B	0	M1
BRK	56	288	0
BST	56	288	7
SI_	56	288	7	96	48	4
STR	57	0	7
SI_	57	0	7	96	48	3
TAP	57	48	2
TAP	57	72	2
STR	57	96	7
SI_	57	96	7	96	48	5
TAP	57	144	0
TAP	57	192	7
TAP	57	216	4
TAP	57	240	4
TAP	57	288	3
TAP	57	288	6
TAP	57	336	7
TAP	58	0	2
TAP	58	24	2
TAP	58	48	3
TAP	58	96	1
STR	58	96	4
SXR	58	96	4	96	96	4
TAP	58	144	5
TAP	58	168	5
TAP	58	216	7
TAP	58	240	7
TAP	58	288	5
TAP	58	336	6
STR	59	0	7
SCL	59	0	7	96	96	3
TAP	59	48	3
TAP	59	72	3
TAP	59	120	1
TAP	59	144	1
STR	59	192	0
SCR	59	192	0	96	96	4
TAP	59	240	4
TAP	59	264	4
TAP	59	312	6
TAP	59	336	6
STR	60	0	7
SCL	60	0	7	96	96	3
TAP	60	48	3
TAP	60	72	3
TAP	60	120	1
TAP	60	144	1
TAP	60	192	0
TAP	60	240	1
TAP	60	240	5
BST	60	288	0
SI_	60	288	0	96	48	3
BRK	60	288	7
STR	61	0	0
SI_	61	0	0	96	48	4
TAP	61	48	5
TAP	61	72	5
STR	61	96	0
SI_	61	96	0	96	48	2
TAP	61	144	7
TAP	61	192	0
TAP	61	216	3
TAP	61	240	3
TAP	61	288	1
TAP	61	288	4
TAP	61	336	0
TAP	62	0	5
TAP	62	24	5
TAP	62	48	4
STR	62	96	3
SXL	62	96	3	96	96	3
TAP	62	96	6
TAP	62	144	2
TAP	62	168	2
TAP	62	216	0
TAP	62	240	0
TAP	62	288	2
TAP	62	336	1
STR	63	0	0
SCR	63	0	0	96	96	4
TAP	63	48	4
TAP	63	72	4
TAP	63	120	6
TAP	63	144	6
STR	63	192	7
SCL	63	192	7	96	96	3
TAP	63	240	3
TAP	63	264	3
TAP	63	312	1
TAP	63	336	1
STR	64	0	0
SCR	64	0	0	96	96	4
TAP	64	48	4
TAP	64	72	4
TAP	64	120	6
TAP	64	144	6
TAP	64	192	7
TAP	64	240	2
TAP	64	240	6
BRK	64	288	0
BST	64	288	7
SI_	64	288	7	96	48	4
STR	65	0	7
SI_	65	0	7	96	48	3
TAP	65	48	2
TAP	65	72	2
STR	65	96	7
SCL	65	96	7	96	48	5
TAP	65	144	0
STR	65	192	7
SI_	65	192	7	96	48	4
TAP	65	216	3
TAP	65	240	3
TAP	65	288	2
STR	65	288	7
SI_	65	288	7	96	48	3
TAP	65	336	0
STR	66	0	7
SI_	66	0	7	96	48	5
TAP	66	24	2
TAP	66	48	2
TAP	66	96	3
STR	66	96	7
SI_	66	96	7	96	48	4
TAP	66	144	1
TAP	66	168	1
TAP	66	192	7
TAP	66	240	0
TAP	66	288	2
TAP	66	288	5
TAP	66	336	6
STR	67	0	7
SLL	67	0	7	96	96	3
TAP	67	48	3
TAP	67	72	3
TAP	67	120	1
TAP	67	144	1
STR	67	192	0
SLR	67	192	0	96	96	4
TAP	67	240	4
TAP	67	264	4
TAP	67	312	6
TAP	67	336	6
STR	68	0	7
SLL	68	0	7	96	96	3
TAP	68	48	3
TAP	68	72	3
TAP	68	120	1
TAP	68	144	1
TAP	68	192	0
TAP	68	240	1
TAP	68	240	5
BST	68	288	0
SI_	68	288	0	96	48	3
BRK	68	288	7
STR	69	0	0
SI_	69	0	0	96	48	4
TAP	69	48	5
TAP	69	72	5
STR	69	96	0
SI_	69	96	0	96	48	2
TAP	69	144	7
TAP	69	192	0
TAP	69	216	3
TAP	69	240	3
TAP	69	288	0
STR	69	288	7
SI_	69	288	7	96	48	4
TAP	69	336	1
STR	70	0	7
SI_	70	0	7	96	48	3
TAP	70	24	2
TAP	70	48	2
TAP	70	96	0
STR	70	96	7
SI_	70	96	7	96	48	5
TAP	70	144	1
TAP	70	168	1
TAP	70	192	7
TAP	70	240	3
STR	70	288	0
SI_	70	288	0	96	48	3
TAP	70	288	7
TAP	70	336	6
STR	71	0	0
SI_	71	0	0	96	48	4
TAP	71	48	5
TAP	71	72	5
STR	71	96	0
SI_	71	96	0	96	48	2
TAP	71	144	6
TAP	71	192	0
TAP	71	216	4
TAP	71	240	4
STR	71	288	0
SI_	71	288	0	96	48	4
STR	71	288	7
SI_	71	288	7	96	48	3
TAP	71	336	1
TAP	71	336	6
TAP	72	96	0
TAP	72	96	7
STR	72	144	1
SI_	72	144	1	96	48	4
STR	72	144	6
SI_	72	144	6	96	48	3
STR	72	192	3
SCL	72	192	3	96	48	0
STR	72	192	4
SCR	72	192	4	96	48	7
HLD	73	0	3	72
TAP	73	0	5
TAP	73	72	5
TAP	73	144	4
TAP	73	216	2
TAP	73	240	3
TAP	73	264	1
TAP	73	288	2
TTP	73	336	0	E	0	M1
TAP	74	24	5
TAP	74	48	4
TAP	74	72	6
HLD	74	96	6	48
TAP	74	144	4
TAP	74	168	5
TAP	74	240	4
TAP	74	288	6
TAP	74	336	7
TAP	75	0	1
TAP	75	24	1
TAP	75	48	3
HLD	75	72	2	72
HLD	75	144	7	72
TAP	75	216	4
TAP	75	288	3
TAP	75	288	5
TAP	75	336	1
STR	76	0	0
SCR	76	0	0	96	48	3
TAP	76	72	3
TAP	76	144	4
TAP	76	192	5
TAP	76	216	5
TAP	76	240	4
TAP	76	264	6
TAP	76	288	3
TAP	76	312	4
TAP	76	336	2
XTP	77	0	1
XHO	77	0	5	72
TAP	77	72	2
TAP	77	144	3
TAP	77	216	5
TAP	77	240	4
TAP	77	264	6
TAP	77	288	5
TTP	77	336	0	E	0	M1
TAP	78	24	2
TAP	78	48	3
TAP	78	72	1
HLD	78	96	1	48
TAP	78	144	3
TAP	78	168	2
TAP	78	240	3
TAP	78	288	1
TAP	78	336	0
TAP	79	0	6
TAP	79	24	6
TAP	79	48	4
HLD	79	72	5	72
HLD	79	144	0	72
TAP	79	216	3
TAP	79	288	2
TAP	79	288	4
TAP	79	336	5
TAP	80	0	1
TAP	80	0	6
TAP	80	48	0
TAP	80	72	7
TAP	80	144	2
TAP	80	144	5
TTP	80	192	7	E	0	M1
TTP	80	240	1	E	0	M1
TTP	80	288	5	B	0	M1
TTP	80	304	4	B	0	M1
TTP	80	320	3	B	0	M1
TTP	80	336	2	B	0	M1

T_REC_TAP	561
T_REC_BRK	7
T_REC_XTP	13
T_REC_HLD	33
T_REC_XHO	1
T_REC_STR	57
T_REC_BST	4
T_REC_XST	0
T_REC_TTP	133
T_REC_THO	0
T_REC_SLD	61
T_REC_ALL	870
T_NUM_TAP	764
T_NUM_BRK	11
T_NUM_HLD	34
T_NUM_SLD	61
T_NUM_ALL	870
T_JUDGE_TAP	775
T_JUDGE_HLD	90
T_JUDGE_SLD	61
T_JUDGE_ALL	926
TTM_EACHPAIRS	93
TTM_SCR_TAP	382000
TTM_SCR_BRK	28600
TTM_SCR_HLD	34000
TTM_SCR_SLD	91500
TTM_SCR_ALL	536100
TTM_SCR_S	518950
TTM_SCR_SS	535000
TTM_RAT_ACV	10020

