VERSION	0.00.00	1.03.00
FES_MODE	0
BPM_DEF	145.000	145.000	145.000	145.000
MET_DEF	4	4
RESOLUTION	384
CLK_DEF	384
COMPATIBLE_CODE	MA2

BPM	0	0	145.000
MET	0	0	4	4

XST	1	0	1
SI_	1	0	1	96	144	5
XTP	1	0	4
TAP	2	0	4
TAP	2	0	6
TAP	2	96	5
HLD	2	192	4	72
HLD	2	264	3	72
TAP	2	336	2
STR	3	0	1
SCR	3	0	1	96	144	5
TAP	4	0	4
TAP	4	0	5
TAP	4	96	2
TAP	4	96	3
TAP	4	192	3
TAP	4	192	4
TAP	4	288	0
TAP	4	288	7
XTP	5	0	1
XST	5	0	6
SI_	5	0	6	96	144	2
TAP	6	0	1
TAP	6	0	3
TAP	6	96	2
HLD	6	192	3	72
HLD	6	264	4	72
TAP	6	336	5
STR	7	0	6
SCL	7	0	6	96	144	2
STR	8	0	0
SF_	8	0	0	96	96	4
BRK	8	288	0
BRK	8	288	6
XTP	9	0	2
XTP	9	0	3
TAP	9	96	1
TAP	9	144	1
TAP	9	192	0
TAP	9	192	2
TAP	9	288	3
TAP	9	288	4
TAP	10	0	7
TAP	10	48	6
TAP	10	96	0
TAP	10	96	5
TAP	10	192	3
TAP	10	240	2
TAP	10	288	1
TAP	10	288	4
TAP	11	0	0
STR	11	0	7
SI_	11	0	7	96	48	5
TAP	11	96	4
STR	11	192	0
SI_	11	192	0	96	48	4
TAP	11	192	1
TAP	11	288	3
TAP	12	0	1
TAP	12	48	1
TAP	12	96	4
TAP	12	144	4
TAP	12	192	0
TAP	12	240	1
TAP	12	288	2
TAP	12	288	7
XTP	13	0	4
XTP	13	0	5
TAP	13	96	6
TAP	13	144	6
TAP	13	192	5
TAP	13	192	7
TAP	13	288	3
TAP	13	288	4
TAP	14	0	0
TAP	14	48	1
TAP	14	96	2
TAP	14	96	7
TAP	14	192	4
TAP	14	240	5
TAP	14	288	3
TAP	14	288	6
STR	15	0	0
SI_	15	0	0	96	48	2
TAP	15	0	7
TAP	15	96	3
TAP	15	192	6
STR	15	192	7
SI_	15	192	7	96	48	3
TAP	15	288	4
TAP	16	0	6
TAP	16	48	6
TAP	16	96	3
TAP	16	144	3
TAP	16	192	7
TAP	16	240	6
TAP	16	288	0
TAP	16	288	5
XTP	17	0	2
XTP	17	0	3
TAP	17	96	1
TAP	17	144	1
TAP	17	192	0
TAP	17	192	2
TAP	17	288	4
TAP	17	288	5
TAP	18	0	2
TAP	18	0	7
TAP	18	48	6
TAP	18	96	0
TAP	18	96	5
TAP	18	192	3
TAP	18	192	6
TAP	18	240	2
TAP	18	288	1
TAP	18	288	4
STR	19	0	0
SI_	19	0	0	96	48	4
TAP	19	0	7
TAP	19	96	5
STR	19	192	0
SI_	19	192	0	96	48	4
TAP	19	192	1
TAP	19	288	3
TAP	20	0	1
TAP	20	48	1
TAP	20	96	4
TAP	20	144	4
TAP	20	192	0
TAP	20	240	1
TAP	20	288	2
TAP	20	288	7
XTP	21	0	4
XTP	21	0	5
TAP	21	96	6
TAP	21	144	6
TAP	21	192	5
TAP	21	192	7
TAP	21	288	2
TAP	21	288	3
TAP	22	0	0
TAP	22	0	5
TAP	22	48	1
TAP	22	96	2
TAP	22	96	7
TAP	22	192	1
TAP	22	192	4
TAP	22	240	5
TAP	22	288	3
TAP	22	288	6
TAP	23	0	0
STR	23	0	7
SI_	23	0	7	96	48	3
TAP	23	96	2
TAP	23	192	6
STR	23	192	7
SI_	23	192	7	96	48	3
TAP	23	288	4
TAP	24	0	5
TAP	24	48	5
TAP	24	96	2
TAP	24	144	2
TAP	24	192	3
TAP	24	192	4
BRK	24	288	1
BRK	24	288	6
HLD	25	0	2	1344
STR	25	0	7
SCL	25	0	7	96	192	3
TTP	26	0	3	E	0	M1
TTP	26	96	4	E	0	M1
TTP	26	192	5	E	0	M1
TTP	26	288	6	E	0	M1
STR	27	0	7
SSR	27	0	7	96	192	3
TTP	28	0	3	E	0	M1
TTP	28	96	0	C	0	M1
TTP	28	192	7	E	0	M1
TAP	28	288	1
TAP	28	288	4
STR	29	0	0
SCR	29	0	0	96	192	4
HLD	29	0	5	1344
TTP	30	0	5	E	0	M1
TTP	30	96	4	E	0	M1
TTP	30	192	3	E	0	M1
TTP	30	288	2	E	0	M1
STR	31	0	0
SSL	31	0	0	96	192	4
TTP	32	0	0	E	0	M1
TTP	32	96	4	E	0	M1
TTP	32	192	0	C	1	M1
TAP	33	0	0
TAP	33	0	1
TAP	33	96	2
TAP	33	144	2
TAP	33	192	3
TAP	33	288	0
TAP	33	288	4
TAP	34	0	2
TAP	34	0	3
TAP	34	96	0
TAP	34	96	1
HLD	34	192	2	72
HLD	34	264	3	72
TAP	34	336	4
TAP	35	0	4
TAP	35	96	5
TAP	35	144	5
TAP	35	192	4
TAP	35	288	3
TAP	35	288	7
HLD	36	0	6	72
HLD	36	72	5	72
TAP	36	144	4
TAP	36	192	2
TAP	36	240	2
TAP	36	288	1
TAP	36	288	3
TAP	37	0	0
TAP	37	0	1
TAP	37	96	2
TAP	37	144	2
TAP	37	192	3
TAP	37	288	1
TAP	37	288	4
TAP	38	0	2
TAP	38	0	3
TAP	38	96	0
TAP	38	96	1
HLD	38	192	2	72
HLD	38	264	3	72
TAP	38	336	4
TAP	39	0	4
TAP	39	96	5
TAP	39	144	5
TAP	39	192	4
TAP	39	288	3
TAP	39	288	6
TTP	40	0	1	B	0	M1
TTP	40	0	2	B	0	M1
TTP	40	0	2	E	0	M1
TTP	40	96	5	B	0	M1
TTP	40	96	6	B	0	M1
TTP	40	96	6	E	0	M1
XTP	40	192	3
XTP	40	192	4
XTP	40	240	3
XTP	40	240	4
XTP	40	288	3
XTP	40	288	4
BST	41	0	1
SCL	41	0	1	96	576	2
BRK	41	0	6
HLD	43	0	4	384
HLD	44	0	2	192
HLD	44	192	7	192
STR	45	0	3
SCL	45	0	3	96	576	4
SUR	45	0	3	96	576	4
TTP	47	0	7	E	0	M1
TTP	47	96	6	E	0	M1
TTP	47	192	5	E	0	M1
TTP	47	288	4	E	0	M1
TTP	48	0	3	E	0	M1
TTP	48	96	2	E	0	M1
TTP	48	192	1	E	0	M1
BRK	48	288	0
BRK	48	288	7
HLD	49	0	1	72
HLD	49	72	2	72
HLD	49	144	3	72
TAP	49	216	4
TAP	49	288	2
TAP	49	288	5
HLD	50	0	6	72
HLD	50	72	5	72
HLD	50	144	4	72
TAP	50	216	3
TAP	50	288	2
TAP	50	288	5
HLD	51	0	0	72
HLD	51	72	1	72
HLD	51	144	2	72
TAP	51	216	3
TAP	51	288	1
TAP	51	288	4
HLD	52	0	7	72
HLD	52	72	6	72
TAP	52	144	5
TAP	52	192	4
TAP	52	240	4
TAP	52	288	3
TAP	52	288	5
TAP	53	0	0
TAP	53	0	1
TAP	53	96	1
TAP	53	96	2
TAP	53	192	2
TAP	53	192	3
TAP	53	288	3
TAP	53	288	4
TAP	54	0	4
TAP	54	0	5
TAP	54	96	5
TAP	54	96	6
TAP	54	192	6
TAP	54	192	7
TAP	54	288	0
TAP	54	288	7
TAP	55	0	1
TAP	55	48	2
TAP	55	96	3
TAP	55	144	4
TAP	55	192	5
TAP	55	240	6
TAP	55	288	7
TAP	55	336	0
HLD	56	0	1	192
TTP	56	192	3	B	0	M1
TTP	56	192	4	B	0	M1
TTP	56	288	0	C	1	M1
TTP	56	288	2	E	0	M1
TTP	56	288	6	E	0	M1
XST	57	0	7
SI_	57	0	7	96	48	3
TAP	57	48	7
STR	57	96	0
SI_	57	96	0	96	48	2
TAP	57	144	0
STR	57	192	6
SI_	57	192	6	96	48	4
TAP	57	240	6
TAP	57	288	0
STR	58	0	2
SI_	58	0	2	96	48	0
STR	58	0	3
SI_	58	0	3	96	48	7
STR	58	192	3
SI_	58	192	3	96	48	7
STR	58	192	4
SI_	58	192	4	96	48	6
STR	59	0	1
SI_	59	0	1	96	48	6
TAP	59	96	4
STR	59	192	5
SI_	59	192	5	96	48	2
TAP	59	288	0
TAP	60	0	1
TAP	60	48	1
TAP	60	96	4
TAP	60	144	5
TAP	60	192	6
TAP	60	192	7
BRK	60	288	1
BRK	60	288	4
XST	61	0	0
SI_	61	0	0	96	48	4
TAP	61	48	0
STR	61	96	7
SI_	61	96	7	96	48	5
TAP	61	144	7
STR	61	192	1
SI_	61	192	1	96	48	3
TAP	61	240	1
TAP	61	288	7
STR	62	0	4
SI_	62	0	4	96	48	0
STR	62	0	5
SI_	62	0	5	96	48	7
STR	62	192	3
SI_	62	192	3	96	48	1
STR	62	192	4
SI_	62	192	4	96	48	0
STR	63	0	6
SI_	63	0	6	96	48	1
TAP	63	96	3
STR	63	192	2
SI_	63	192	2	96	48	5
TAP	63	288	7
TAP	64	0	6
TAP	64	48	6
TAP	64	96	3
TAP	64	144	2
TAP	64	192	0
TAP	64	192	1
BRK	64	288	3
BRK	64	288	6
XST	65	0	1
SI_	65	0	1	96	48	3
TAP	65	48	1
STR	65	96	5
SI_	65	96	5	96	48	7
TAP	65	144	5
STR	65	192	0
SI_	65	192	0	96	48	4
TAP	65	240	0
TAP	65	288	6
STR	66	0	0
SI_	66	0	0	96	48	6
STR	66	0	1
SI_	66	0	1	96	48	5
STR	66	192	1
SI_	66	192	1	96	48	5
STR	66	192	2
SI_	66	192	2	96	48	4
STR	67	0	7
SI_	67	0	7	96	48	3
STR	67	96	1
SCL	67	96	1	96	48	6
STR	67	192	5
SCL	67	192	5	96	48	2
TAP	67	288	0
TAP	68	0	1
TAP	68	0	7
TAP	68	48	2
TAP	68	96	3
TAP	68	96	4
TAP	68	144	5
TAP	68	192	6
TAP	68	192	7
BRK	68	288	1
BRK	68	288	4
XST	69	0	6
SI_	69	0	6	96	48	4
TAP	69	48	6
STR	69	96	2
SI_	69	96	2	96	48	0
TAP	69	144	2
STR	69	192	7
SI_	69	192	7	96	48	3
TAP	69	240	7
TAP	69	288	1
STR	70	0	6
SI_	70	0	6	96	48	2
STR	70	0	7
SI_	70	0	7	96	48	1
STR	70	192	5
SI_	70	192	5	96	48	3
STR	70	192	6
SI_	70	192	6	96	48	2
STR	71	0	0
SI_	71	0	0	96	48	4
STR	71	96	6
SCR	71	96	6	96	48	1
STR	71	192	2
SCR	71	192	2	96	48	5
TAP	71	288	7
TAP	72	0	0
TAP	72	0	6
TAP	72	48	5
TAP	72	96	3
TAP	72	96	4
TAP	72	144	2
XTP	72	192	1
XTP	72	192	3
XTP	72	264	4
XTP	72	264	6
XTP	72	336	0
XTP	72	336	7
BRK	73	0	1
BST	73	0	6
SCR	73	0	6	96	288	4
HLD	74	0	2	192
THO	74	192	0	192	C	0	M1
STR	75	0	0
SCL	75	0	0	96	288	2
HLD	76	0	4	192
TTP	76	192	0	C	0	M1
TAP	76	288	0
TAP	76	288	7
HLD	77	0	1	72
HLD	77	72	3	72
HLD	77	144	4	72
TAP	77	216	6
TAP	77	288	3
TAP	77	288	7
HLD	78	0	6	72
HLD	78	72	4	72
HLD	78	144	3	72
TAP	78	216	1
TAP	78	288	0
TAP	78	288	4
TAP	79	0	7
TAP	79	48	7
TAP	79	96	0
TAP	79	144	0
TAP	79	192	1
TAP	79	192	6
STR	79	288	3
SV_	79	288	3	96	96	1
STR	79	288	4
SV_	79	288	4	96	96	6
STR	80	192	0
SI_	80	192	0	96	48	4
STR	80	192	7
SI_	80	192	7	96	48	3

T_REC_TAP	265
T_REC_BRK	14
T_REC_XTP	22
T_REC_HLD	35
T_REC_XHO	0
T_REC_STR	55
T_REC_BST	2
T_REC_XST	6
T_REC_TTP	33
T_REC_THO	1
T_REC_SLD	64
T_REC_ALL	497
T_NUM_TAP	381
T_NUM_BRK	16
T_NUM_HLD	36
T_NUM_SLD	64
T_NUM_ALL	497
T_JUDGE_TAP	397
T_JUDGE_HLD	142
T_JUDGE_SLD	64
T_JUDGE_ALL	603
TTM_EACHPAIRS	105
TTM_SCR_TAP	190500
TTM_SCR_BRK	41600
TTM_SCR_HLD	36000
TTM_SCR_SLD	96000
TTM_SCR_ALL	364100
TTM_SCR_S	351650
TTM_SCR_SS	362500
TTM_RAT_ACV	10044

