VERSION	0.00.00	1.03.00
FES_MODE	0
BPM_DEF	145.000	145.000	145.000	145.000
MET_DEF	4	4
RESOLUTION	384
CLK_DEF	384
COMPATIBLE_CODE	MA2

BPM	0	0	145.000
MET	0	0	4	4

HLD	1	0	2	384
HLD	1	0	4	384
TAP	2	192	2
TAP	2	192	4
HLD	3	0	3	384
HLD	3	0	5	384
TAP	4	192	3
TAP	4	192	5
HLD	5	0	5	192
TAP	5	192	4
HLD	6	0	2	192
TAP	6	192	3
HLD	7	0	5	192
TAP	7	192	4
TAP	8	0	3
TAP	8	0	4
XTP	8	192	2
XTP	8	192	5
TAP	9	0	2
TAP	9	96	2
TAP	9	192	3
TAP	9	288	3
TAP	10	0	4
TAP	10	192	3
TAP	10	192	5
TAP	11	0	2
TAP	11	96	2
TAP	11	192	2
TAP	11	192	3
TAP	12	0	5
TAP	12	96	5
TAP	12	192	4
TAP	12	192	5
TAP	13	0	6
TAP	13	96	6
TAP	13	192	7
TAP	13	288	7
TAP	14	0	0
TAP	14	192	1
TAP	14	192	7
TAP	15	0	6
TAP	15	96	6
TAP	15	192	6
TAP	15	192	7
TAP	16	0	1
TAP	16	96	1
TAP	16	192	0
TAP	16	192	1
TAP	17	0	2
TAP	17	96	2
TAP	17	192	3
TAP	17	288	3
TAP	18	0	4
TAP	18	96	5
TAP	18	192	4
TAP	18	192	5
TAP	19	0	2
TAP	19	96	2
TAP	19	192	1
TAP	19	192	3
TAP	20	0	5
TAP	20	96	5
TAP	20	192	4
TAP	20	192	6
TAP	21	0	5
TAP	21	96	5
TAP	21	192	6
TAP	21	288	6
TAP	22	0	7
TAP	22	96	7
TAP	22	192	0
TAP	22	192	7
TAP	23	0	1
TAP	23	96	1
TAP	23	192	0
TAP	23	288	0
TAP	24	0	0
TAP	24	0	7
XTP	24	192	1
XTP	24	192	6
HLD	25	0	1	192
HLD	25	192	2	192
TAP	26	0	3
TAP	26	192	4
HLD	27	0	6	192
HLD	27	192	5	192
TAP	28	0	4
TAP	28	192	3
TAP	28	192	4
HLD	29	0	1	192
HLD	29	192	2	192
TAP	30	0	3
TAP	30	192	3
TAP	30	192	4
HLD	31	0	2	192
HLD	31	0	5	192
TAP	32	0	3
TAP	32	0	4
TAP	32	96	3
TAP	32	96	4
XTP	32	192	2
XTP	32	192	5
HLD	33	0	1	192
HLD	33	192	2	192
HLD	34	0	3	192
HLD	34	192	4	192
HLD	35	0	5	192
HLD	35	192	6	192
TAP	36	0	7
TAP	36	192	6
TAP	36	192	7
HLD	37	0	6	192
HLD	37	192	5	192
HLD	38	0	4	192
HLD	38	192	3	192
HLD	39	0	2	192
HLD	39	192	1	192
TAP	40	0	0
XTP	40	192	0
XTP	40	192	7
BST	41	0	1
SUR	41	0	1	96	480	4
STR	43	0	5
SUR	43	0	5	96	480	0
STR	45	0	1
SXL	45	0	1	96	480	4
HLD	47	0	5	192
HLD	47	192	4	192
TAP	48	0	3
XTP	48	192	3
XTP	48	192	4
TTP	49	0	3	E	0	L1
TTP	49	192	1	B	0	L1
TTP	50	0	2	E	0	L1
TTP	50	96	2	B	0	L1
TTP	50	192	3	B	0	L1
TTP	51	0	5	E	0	L1
TTP	51	192	6	B	0	L1
TTP	52	0	6	E	0	L1
TTP	52	96	5	B	0	L1
TTP	52	192	4	B	0	L1
TTP	53	0	2	B	0	L1
TTP	53	0	3	B	0	L1
TTP	53	192	4	B	0	L1
TTP	53	192	5	B	0	L1
TTP	54	0	1	B	0	L1
TTP	54	0	1	E	0	L1
TTP	54	192	6	B	0	L1
TTP	54	192	7	E	0	L1
THO	55	0	0	384	C	1	L1
TAP	57	0	0
TAP	57	0	7
TAP	57	96	1
TAP	57	192	2
TAP	57	240	2
TAP	57	288	2
TAP	58	0	3
TAP	58	0	4
TAP	58	96	5
TAP	58	192	6
TAP	58	240	6
TAP	58	288	6
TAP	59	0	6
TAP	59	0	7
TAP	59	96	0
TAP	59	96	5
TAP	59	192	0
TAP	59	192	1
TAP	59	288	2
TAP	59	288	7
TAP	60	0	0
TAP	60	0	7
TAP	60	96	1
TAP	60	96	6
TAP	60	192	2
TAP	60	192	5
TAP	60	288	2
TAP	60	288	5
TAP	61	0	6
TAP	61	48	6
TAP	61	96	6
TAP	61	192	5
TAP	61	288	4
TAP	62	0	3
TAP	62	48	3
TAP	62	96	3
TAP	62	192	2
TAP	62	288	1
TAP	63	0	1
TAP	63	0	3
TAP	63	96	2
TAP	63	192	4
TAP	63	192	6
TAP	63	288	5
TAP	64	0	2
TAP	64	0	3
TAP	64	96	2
TAP	64	96	3
BRK	64	192	1
BRK	64	192	4
TAP	65	0	2
TAP	65	48	2
TAP	65	96	3
TAP	65	192	1
TAP	65	192	4
TAP	65	288	1
TAP	65	288	4
TAP	66	0	5
TAP	66	48	5
TAP	66	96	4
TAP	66	192	3
TAP	66	192	6
TAP	66	288	3
TAP	66	288	6
TAP	67	0	2
TAP	67	0	5
TAP	67	96	1
TAP	67	96	4
TAP	67	192	2
TAP	67	192	5
TAP	67	288	3
TAP	67	288	6
TAP	68	0	4
TAP	68	0	5
TAP	68	96	4
TAP	68	96	5
BRK	68	192	3
BRK	68	192	6
TAP	69	0	1
TAP	69	48	1
TAP	69	96	0
TAP	69	192	2
TAP	69	192	7
TAP	69	288	2
TAP	69	288	7
TAP	70	0	6
TAP	70	48	6
TAP	70	96	7
TAP	70	192	0
TAP	70	192	5
TAP	70	288	0
TAP	70	288	5
TAP	71	0	1
TAP	71	0	6
TAP	71	96	2
TAP	71	96	7
TAP	71	192	1
TAP	71	192	6
TAP	71	288	0
TAP	71	288	5
TAP	72	0	6
TAP	72	0	7
TAP	72	96	4
TAP	72	96	5
TAP	72	192	2
TAP	72	192	3
XTP	72	288	1
XTP	72	288	4
BST	73	0	0
SCR	73	0	0	96	480	6
STR	75	0	7
SCL	75	0	7	96	480	1
HLD	77	0	0	192
HLD	77	192	1	192
HLD	78	0	2	192
HLD	78	192	3	192
HLD	79	0	4	192
HLD	79	192	5	192
HLD	80	0	3	336
THO	80	192	0	144	C	0	L1

T_REC_TAP	188
T_REC_BRK	4
T_REC_XTP	12
T_REC_HLD	36
T_REC_XHO	0
T_REC_STR	3
T_REC_BST	2
T_REC_XST	0
T_REC_TTP	18
T_REC_THO	2
T_REC_SLD	5
T_REC_ALL	270
T_NUM_TAP	221
T_NUM_BRK	6
T_NUM_HLD	38
T_NUM_SLD	5
T_NUM_ALL	270
T_JUDGE_TAP	227
T_JUDGE_HLD	174
T_JUDGE_SLD	5
T_JUDGE_ALL	406
TTM_EACHPAIRS	65
TTM_SCR_TAP	110500
TTM_SCR_BRK	15600
TTM_SCR_HLD	38000
TTM_SCR_SLD	7500
TTM_SCR_ALL	171600
TTM_SCR_S	165900
TTM_SCR_SS	171000
TTM_RAT_ACV	10035

