VERSION	0.00.00	1.03.00
FES_MODE	0
BPM_DEF	145.000	145.000	145.000	145.000
MET_DEF	4	4
RESOLUTION	384
CLK_DEF	384
COMPATIBLE_CODE	MA2

BPM	0	0	145.000
MET	0	0	4	4

HLD	1	0	0	384
HLD	3	0	7	384
TAP	5	0	0
TAP	5	192	0
TAP	6	0	1
TAP	6	192	1
TAP	7	0	2
TAP	7	192	2
TAP	8	0	3
XTP	8	192	3
XTP	8	192	4
TAP	9	0	4
TAP	9	96	4
TAP	9	192	4
TAP	10	0	5
TAP	10	96	5
TAP	10	192	5
HLD	11	0	6	192
HLD	12	0	6	192
TAP	13	0	7
TAP	13	96	7
TAP	13	192	7
TAP	14	0	0
TAP	14	96	0
TAP	14	192	0
HLD	15	0	1	192
HLD	16	0	1	192
TAP	17	0	2
TAP	17	96	2
TAP	17	192	2
TAP	18	0	3
TAP	18	96	3
TAP	18	192	3
HLD	19	0	4	96
HLD	19	192	3	96
TAP	20	0	4
TAP	20	96	4
TAP	20	192	3
TAP	20	192	5
TAP	21	0	2
TAP	21	96	2
TAP	21	192	2
TAP	21	192	3
TAP	22	0	5
TAP	22	96	5
TAP	22	192	4
TAP	22	192	5
HLD	23	0	3	96
HLD	23	192	4	96
TAP	24	0	3
TAP	24	96	3
TAP	24	192	2
TAP	24	192	4
STR	25	0	2
SI_	25	0	2	96	288	7
STR	27	0	6
SI_	27	0	6	96	288	3
STR	29	0	1
SI_	29	0	1	96	288	4
STR	31	0	5
SI_	31	0	5	96	288	0
TAP	33	0	1
TAP	33	192	1
TAP	34	0	2
TAP	34	192	2
TAP	35	0	3
TAP	35	192	3
TAP	36	0	4
TAP	36	96	4
TAP	36	192	3
TAP	36	192	4
TAP	37	0	5
TAP	37	192	5
TAP	38	0	6
TAP	38	192	6
TAP	39	0	7
TAP	39	192	7
TAP	40	0	0
TAP	40	96	0
BRK	40	192	0
BRK	40	192	7
STR	41	0	0
SI_	41	0	0	96	288	3
STR	43	0	4
SI_	43	0	4	96	288	7
STR	45	0	7
SI_	45	0	7	96	288	4
STR	47	0	3
SI_	47	0	3	96	288	0
TTP	49	0	0	B	0	L1
TTP	50	0	7	B	0	L1
TTP	51	0	1	B	0	L1
TTP	52	0	6	B	0	L1
TTP	53	0	3	B	0	L1
TTP	53	0	4	B	0	L1
TTP	54	0	2	B	0	L1
TTP	54	0	5	B	0	L1
THO	55	0	0	384	C	1	L1
TAP	57	0	7
TAP	57	96	7
TAP	57	192	7
TAP	58	0	6
TAP	58	96	6
TAP	58	192	6
TAP	59	0	5
TAP	59	96	5
TAP	59	192	4
TAP	59	288	4
TAP	60	0	3
TAP	60	96	3
TAP	60	192	2
TAP	60	192	4
TAP	61	0	3
TAP	61	96	3
TAP	61	192	3
TAP	62	0	2
TAP	62	96	2
TAP	62	192	2
TAP	63	0	1
TAP	63	96	1
TAP	63	192	0
TAP	63	288	0
TAP	64	0	7
TAP	64	96	7
XTP	64	192	0
XTP	64	192	6
TAP	65	0	0
TAP	65	96	0
TAP	65	192	0
TAP	66	0	1
TAP	66	96	1
TAP	66	192	1
TAP	67	0	2
TAP	67	96	2
TAP	67	192	3
TAP	67	288	3
TAP	68	0	4
TAP	68	96	4
TAP	68	192	3
TAP	68	192	5
TAP	69	0	4
TAP	69	96	4
TAP	69	192	4
TAP	70	0	5
TAP	70	96	5
TAP	70	192	5
TAP	71	0	6
TAP	71	96	6
TAP	71	192	7
TAP	71	288	7
TAP	72	0	0
TAP	72	96	0
BRK	72	192	1
BRK	72	192	7
TAP	73	0	0
TAP	74	0	0
TAP	75	0	7
TAP	76	0	7
TAP	77	0	1
TAP	77	192	0
TAP	77	192	1
TAP	78	0	6
TAP	78	192	6
TAP	78	192	7
TAP	79	0	0
TAP	79	192	0
TAP	79	192	7
STR	80	0	0
SI_	80	0	0	96	288	3
STR	80	0	7
SI_	80	0	7	96	288	4

T_REC_TAP	124
T_REC_BRK	4
T_REC_XTP	4
T_REC_HLD	10
T_REC_XHO	0
T_REC_STR	10
T_REC_BST	0
T_REC_XST	0
T_REC_TTP	8
T_REC_THO	1
T_REC_SLD	10
T_REC_ALL	171
T_NUM_TAP	146
T_NUM_BRK	4
T_NUM_HLD	11
T_NUM_SLD	10
T_NUM_ALL	171
T_JUDGE_TAP	150
T_JUDGE_HLD	48
T_JUDGE_SLD	10
T_JUDGE_ALL	208
TTM_EACHPAIRS	15
TTM_SCR_TAP	73000
TTM_SCR_BRK	10400
TTM_SCR_HLD	11000
TTM_SCR_SLD	15000
TTM_SCR_ALL	109400
TTM_SCR_S	105750
TTM_SCR_SS	109000
TTM_RAT_ACV	10036

