VERSION	0.00.00	1.03.00
FES_MODE	0
BPM_DEF	170.000	170.000	170.000	170.000
MET_DEF	4	4
RESOLUTION	384
CLK_DEF	384
COMPATIBLE_CODE	MA2

BPM	0	0	170.000
MET	0	0	4	4

TAP	1	336	5
TAP	1	360	4
HLD	2	0	3	192
HLD	2	192	4	144
HLD	2	336	5	192
STR	3	144	6
SI_	3	144	6	96	48	4
TAP	3	336	2
TAP	3	360	3
HLD	4	0	4	192
HLD	4	192	3	144
HLD	4	336	2	192
STR	5	144	1
SI_	5	144	1	96	48	3
TAP	5	336	5
TAP	5	360	4
TAP	6	0	3
TAP	6	48	2
TAP	6	96	1
TAP	6	144	0
HLD	6	192	7	144
HLD	6	336	0	192
STR	7	144	7
SI_	7	144	7	96	48	3
TAP	7	336	1
TAP	7	360	2
TAP	8	0	3
TAP	8	24	4
TAP	8	48	5
TAP	8	72	6
TAP	8	96	7
TAP	8	120	0
TAP	8	144	1
TAP	8	168	2
TAP	8	192	3
TAP	8	216	4
TAP	8	240	5
TAP	8	264	6
HLD	8	336	2	144
HLD	8	336	6	144
STR	9	144	2
SI_	9	144	2	96	48	7
STR	9	144	6
SI_	9	144	6	96	48	3
TAP	10	0	2
TAP	10	0	3
TAP	10	48	1
TAP	10	48	4
TAP	10	144	6
TAP	10	192	5
TAP	10	240	4
TAP	10	288	3
TAP	10	336	2
TAP	10	336	3
TAP	11	48	6
TAP	11	96	7
STR	11	144	0
SI_	11	144	0	96	48	3
TAP	11	144	6
TAP	11	240	7
TAP	11	336	5
TAP	11	360	4
TAP	12	0	5
TAP	12	48	3
TAP	12	48	6
TAP	12	144	1
TAP	12	192	2
TAP	12	240	3
TAP	12	288	4
TAP	12	336	4
TAP	12	336	5
TAP	13	48	1
TAP	13	96	0
TAP	13	144	1
STR	13	144	7
SI_	13	144	7	96	48	4
TAP	13	240	0
TAP	13	336	0
TAP	13	360	7
TAP	14	0	0
TAP	14	16	1
TAP	14	32	2
TAP	14	48	3
TAP	14	64	4
TAP	14	80	5
TAP	14	96	6
TAP	14	112	7
TAP	14	128	0
XTP	14	144	1
TAP	14	160	2
TAP	14	176	3
TAP	14	192	4
XST	14	240	3
SXR	14	240	3	96	240	0
XST	14	240	4
SXL	14	240	4	96	240	7
BRK	14	336	3
BRK	14	336	4
TAP	15	240	1
TAP	15	240	6
TAP	15	288	7
TAP	15	336	0
TAP	16	0	1
TAP	16	0	6
TAP	16	48	1
STR	16	48	6
SCR	16	48	6	96	96	1
STR	16	144	1
SCR	16	144	1	96	96	4
STR	16	240	4
SCR	16	240	4	96	192	3
THO	16	336	0	192	C	1	M1
TAP	17	336	0
TAP	17	352	7
TAP	17	368	0
TAP	18	0	7
TAP	18	24	6
TAP	18	48	5
TAP	18	72	4
TAP	18	96	3
TAP	18	120	2
TAP	18	144	1
TAP	18	168	0
TAP	18	192	7
TAP	18	216	6
TAP	18	240	5
TAP	18	264	4
HLD	19	0	3	192
TAP	19	0	5
HLD	19	192	4	240
HLD	19	336	2	96
TAP	20	144	3
HLD	21	0	3	192
TAP	21	0	5
HLD	21	192	6	240
HLD	21	336	4	96
TAP	22	144	4
TAP	22	144	6
TAP	23	0	2
HLD	23	0	4	192
HLD	23	192	1	240
HLD	23	336	3	96
TAP	24	144	1
TAP	24	144	3
TAP	25	0	2
HLD	25	0	4	192
HLD	25	192	3	240
HLD	25	336	5	96
STR	26	144	2
SI_	26	144	2	96	48	5
TAP	26	144	4
TAP	26	240	5
TAP	27	0	3
TAP	27	0	6
TAP	27	48	5
TAP	27	96	4
TAP	27	144	3
TAP	27	144	6
TAP	27	240	2
TAP	27	288	3
TAP	27	336	2
TAP	27	336	4
TAP	28	48	6
TAP	28	96	5
STR	28	144	4
SI_	28	144	4	96	48	2
TAP	28	144	6
TAP	29	0	1
TAP	29	0	4
TAP	29	48	2
TAP	29	96	3
TAP	29	144	1
TAP	29	144	4
TAP	29	240	5
TAP	29	288	4
TAP	29	336	3
TAP	29	336	5
TAP	30	48	2
TAP	30	48	4
TAP	30	144	1
STR	30	144	3
SI_	30	144	3	96	48	5
TAP	31	0	2
TAP	31	0	5
TAP	31	48	3
TAP	31	96	4
TAP	31	144	2
TAP	31	144	5
TAP	31	240	6
TAP	31	288	5
TAP	31	336	4
TAP	31	336	6
TAP	32	48	1
TAP	32	96	2
TAP	32	144	1
TAP	32	144	3
STR	32	240	2
SCL	32	240	2	96	240	5
TAP	32	240	5
THO	32	336	0	240	C	0	M1
TAP	33	336	2
TAP	34	0	3
TAP	34	48	4
TAP	34	96	5
TAP	34	144	3
TAP	34	144	4
STR	35	0	4
SI_	35	0	4	96	48	2
TAP	35	0	5
TAP	35	96	5
TAP	35	192	6
TAP	35	240	6
TAP	35	288	4
TAP	35	288	6
TAP	36	0	2
STR	36	0	3
SI_	36	0	3	96	48	5
TAP	36	96	2
TAP	36	192	1
TAP	36	240	1
TAP	36	288	1
TAP	36	288	3
HLD	37	0	2	96
HLD	37	0	5	96
TAP	37	144	2
TAP	37	144	5
TAP	37	192	3
TAP	37	192	4
TAP	37	240	3
TAP	37	240	4
TTP	37	336	0	E	0	M1
TTP	37	352	0	C	0	M1
TTP	37	368	4	E	0	M1
TTP	38	48	7	E	0	M1
TTP	38	64	6	E	0	M1
TTP	38	80	5	E	0	M1
TTP	38	144	1	E	0	M1
TTP	38	160	2	E	0	M1
TTP	38	176	3	E	0	M1
TAP	38	192	6
TAP	38	224	4
TAP	38	256	5
TAP	38	288	1
TAP	38	320	3
TAP	38	352	2
XTP	39	0	3
XTP	39	0	4
TAP	39	48	5
TAP	39	96	3
TAP	39	96	4
TAP	39	144	2
TAP	39	192	3
TAP	39	192	4
TAP	39	240	6
TAP	39	288	3
TAP	39	288	4
TAP	39	336	1
TAP	40	0	2
TAP	40	0	3
TAP	40	48	6
TAP	40	96	4
TAP	40	96	5
TAP	40	144	1
TAP	40	192	2
TAP	40	192	3
TAP	40	240	7
TAP	40	288	4
TAP	40	288	5
TAP	40	336	0
TAP	41	0	1
TAP	41	0	3
TAP	41	48	7
TAP	41	96	4
TAP	41	96	6
TAP	41	144	0
TAP	41	192	1
TAP	41	192	3
TAP	41	240	2
TAP	41	288	4
TAP	41	288	6
TAP	41	336	5
TAP	42	0	0
TAP	42	0	3
TAP	42	48	2
TAP	42	96	4
TAP	42	96	7
TAP	42	144	5
TAP	42	192	0
TAP	42	192	3
TAP	42	240	1
TAP	42	288	4
TAP	42	288	7
TAP	42	336	6
TAP	43	0	0
TAP	43	24	7
TAP	43	48	0
TAP	43	72	7
TAP	43	96	1
TAP	43	120	6
TAP	43	144	1
TAP	43	168	6
TAP	43	192	2
TAP	43	216	5
TAP	43	240	2
TAP	43	264	5
TAP	43	288	3
TAP	43	312	4
STR	43	336	3
SCL	43	336	3	96	48	0
XTP	44	48	3
STR	44	48	7
SCL	44	48	7	96	48	4
TAP	44	144	0
XTP	44	144	7
XTP	44	240	2
XTP	44	240	3
BRK	44	288	0
BRK	44	288	5
STR	45	0	6
SI_	45	0	6	96	48	3
STR	45	0	7
SI_	45	0	7	96	48	2
TAP	45	96	6
TAP	45	96	7
TAP	45	192	0
TAP	45	192	1
STR	45	240	0
SI_	45	240	0	96	48	3
TAP	45	240	1
TAP	45	336	0
STR	45	336	7
SI_	45	336	7	96	48	4
STR	46	48	6
SCL	46	48	6	96	96	1
TAP	46	48	7
HLD	46	144	0	144
XTP	46	288	7
STR	47	0	1
SI_	47	0	1	96	48	4
TAP	47	0	5
TAP	47	96	6
STR	47	144	6
SI_	47	144	6	96	48	3
HLD	47	240	2	96
STR	47	336	1
SCL	47	336	1	96	48	6
STR	48	48	3
SCL	48	48	3	96	144	4
TAP	48	144	4
XTP	48	288	7
TAP	48	336	1
TAP	48	360	0
TAP	49	0	1
TAP	49	96	3
TAP	49	96	6
TAP	49	144	3
STR	49	144	6
SCR	49	144	6	96	96	1
STR	49	240	1
SCR	49	240	1	96	96	4
STR	49	336	4
SCR	49	336	4	96	96	7
STR	50	48	7
SCR	50	48	7	96	96	2
STR	50	144	2
SCR	50	144	2	96	96	5
TAP	50	240	5
STR	50	336	0
SI_	50	336	0	96	48	4
XTP	51	0	0
STR	51	144	1
SI_	51	144	1	96	48	3
STR	51	144	7
SI_	51	144	7	96	48	5
XTP	51	192	1
XTP	51	192	7
TAP	51	336	4
TAP	52	0	3
TAP	52	0	4
TAP	52	96	1
TAP	52	96	6
STR	52	144	0
SUL	52	144	0	96	48	3
STR	52	144	7
SUR	52	144	7	96	48	4
XTP	52	240	0
XTP	52	240	7
STR	53	0	0
SI_	53	0	0	96	48	5
STR	53	0	1
SI_	53	0	1	96	48	4
TAP	53	96	0
TAP	53	96	1
TAP	53	192	6
TAP	53	192	7
TAP	53	240	6
STR	53	240	7
SI_	53	240	7	96	48	4
STR	53	336	0
SI_	53	336	0	96	48	3
TAP	53	336	7
TAP	54	48	0
STR	54	48	1
SCR	54	48	1	96	96	6
HLD	54	144	7	144
XTP	54	288	0
TAP	54	336	1
TAP	54	336	6
TAP	55	0	2
STR	55	0	5
SCL	55	0	5	96	48	2
HLD	55	96	0	96
TAP	55	192	7
STR	55	240	0
SI_	55	240	0	96	48	3
TAP	55	240	7
XTP	55	336	0
STR	55	336	5
SI_	55	336	5	96	48	2
STR	56	48	1
SI_	56	48	1	96	48	6
XTP	56	48	5
XTP	56	144	1
STR	56	144	4
SI_	56	144	4	96	48	7
XTP	56	240	3
XTP	56	240	4
STR	56	336	2
SXR	56	336	2	96	240	7
XHO	56	336	7	96
STR	57	144	3
SCR	57	144	3	96	48	6
XHO	57	336	0	96
STR	57	336	5
SXL	57	336	5	96	240	0
STR	58	144	4
SCL	58	144	4	96	48	1
HLD	59	0	2	96
TAP	59	0	7
TAP	59	96	3
TAP	59	144	0
HLD	59	144	5	96
TAP	59	240	2
TAP	59	288	1
TAP	59	288	6
TAP	59	336	0
TAP	59	336	7
TAP	60	48	2
STR	60	48	5
SCR	60	48	5	96	96	2
TAP	60	96	3
TAP	60	144	4
TAP	60	288	0
TAP	60	288	7
TAP	61	0	1
TAP	61	0	6
TAP	61	96	2
TAP	61	96	5
TAP	61	192	3
TAP	61	192	4
TAP	61	240	3
STR	61	240	4
SCR	61	240	4	96	96	7
STR	61	336	7
SCR	61	336	7	96	96	2
STR	62	48	2
SCR	62	48	2	96	96	5
STR	62	144	5
SCR	62	144	5	96	96	0
STR	62	240	0
SCR	62	240	0	96	96	3
STR	62	336	3
SCR	62	336	3	96	96	6
TAP	63	144	0
TAP	63	192	1
TAP	63	240	2
TAP	63	240	3
TAP	63	336	7
TAP	64	0	6
TAP	64	48	4
TAP	64	48	5
TAP	64	144	2
TAP	64	192	1
STR	64	240	0
SXL	64	240	0	96	336	3
STR	64	240	4
SXL	64	240	4	96	336	7
TTP	65	336	0	E	0	M1
TTP	65	352	0	C	0	M1
TTP	65	368	4	E	0	M1
TTP	66	48	1	E	0	M1
TTP	66	64	2	E	0	M1
TTP	66	80	3	E	0	M1
TTP	66	144	7	E	0	M1
TTP	66	160	6	E	0	M1
TTP	66	176	5	E	0	M1
TAP	66	288	2
TAP	66	312	4
TAP	66	336	3
TAP	66	360	5
TAP	67	0	4
TAP	67	48	2
TAP	67	48	6
TAP	67	96	5
TAP	67	120	3
TAP	67	144	4
TAP	67	168	2
TAP	67	192	3
TAP	67	240	2
TAP	67	240	4
TAP	67	288	1
TAP	67	288	5
STR	67	336	0
SI_	67	336	0	96	48	4
TAP	67	336	6
TAP	68	48	4
TAP	68	96	5
STR	68	144	6
SSL	68	144	6	96	96	2
STR	68	240	2
SSL	68	240	2	96	96	6
HLD	69	0	0	96
STR	69	96	7
SI_	69	96	7	96	48	3
TAP	69	192	3
TAP	69	240	2
TAP	69	288	1
STR	69	336	0
SUR	69	336	0	96	48	4
STR	69	336	4
SCR	69	336	4	96	48	7
XST	70	48	0
SUL	70	48	0	96	48	4
XST	70	48	4
SCL	70	48	4	96	48	1
XTP	70	144	0
XST	70	144	4
SF_	70	144	4	96	48	0
BRK	70	336	2
BRK	70	336	6
TAP	71	96	0
TAP	71	96	7
TAP	71	120	1
TAP	71	120	6
TAP	71	144	2
TAP	71	144	5
TAP	71	168	3
TAP	71	168	4
HLD	71	192	2	48
HLD	71	192	5	48
TAP	71	288	1
TAP	71	288	6
TAP	71	336	0
TAP	71	336	7
TAP	72	48	1
STR	72	48	5
SI_	72	48	5	96	48	1
TAP	72	96	1
TAP	72	96	5
STR	72	192	2
SI_	72	192	2	96	48	4
STR	72	240	6
SI_	72	240	6	96	48	0
TAP	72	288	2
TAP	72	336	6
TAP	73	0	3
HLD	73	48	3	96
TAP	73	144	4
TAP	73	168	4
TAP	73	192	3
TAP	73	240	2
TAP	73	240	5
TAP	73	288	1
TAP	73	288	6
STR	73	336	0
SCR	73	336	0	96	48	3
STR	73	336	7
SCL	73	336	7	96	48	4
TAP	74	48	0
TAP	74	48	7
TAP	74	144	1
TAP	74	144	6
XTP	74	192	3
XTP	74	216	2
XTP	74	240	1
XTP	74	264	0
XTP	74	288	4
XTP	74	312	5
XTP	74	336	6
XTP	74	360	7
TAP	75	0	0
TAP	75	0	1
TAP	75	48	1
TAP	75	96	1
TAP	75	144	1
TAP	75	192	1
TAP	75	192	3
TAP	75	240	3
TAP	75	288	3
TAP	75	336	3
TAP	76	0	3
TAP	76	0	4
TAP	76	48	4
TAP	76	96	4
TAP	76	144	4
TAP	76	192	4
TAP	76	192	6
TAP	76	240	6
TAP	76	288	6
TAP	76	336	6
TAP	77	0	6
TAP	77	0	7
TAP	77	48	5
TAP	77	96	3
TAP	77	96	4
TAP	77	144	2
TAP	77	192	0
TAP	77	192	1
TAP	77	240	2
TAP	77	288	3
TAP	77	288	4
TAP	77	336	1
TAP	77	336	6
TAP	78	0	0
TAP	78	24	7
TAP	78	48	0
TAP	78	72	7
TAP	78	96	1
TAP	78	120	6
TAP	78	144	1
TAP	78	168	6
TAP	78	192	2
TAP	78	216	5
TAP	78	240	2
TAP	78	264	5
TAP	78	288	3
TAP	78	312	4
TAP	78	336	3
TAP	78	360	4
XTP	79	0	1
XTP	79	16	2
XTP	79	32	3
XTP	79	48	4
XTP	79	64	5
XTP	79	80	6
TAP	79	96	0
TAP	79	120	7
TAP	79	144	2
TAP	79	192	3
TAP	79	240	4
TAP	79	288	5
XTP	84	0	1
XTP	84	0	6
TAP	84	24	5
TAP	84	48	4
TAP	84	72	3
TAP	84	96	0
TAP	84	120	1
TAP	84	144	2
TAP	84	168	3
TAP	84	192	7
TAP	84	216	6
TAP	84	240	5
TAP	84	264	4
TAP	84	288	3
TAP	84	336	3
TAP	84	336	4
XTP	85	0	2
XTP	85	0	5
TAP	85	48	1
TAP	85	48	6
TAP	85	72	2
TAP	85	96	3
TAP	85	120	4
TAP	85	144	7
TAP	85	168	6
TAP	85	192	5
TAP	85	216	4
TAP	85	240	0
TAP	85	264	1
TAP	85	288	2
TAP	85	312	3
STR	85	336	7
SI_	85	336	7	96	48	3
XTP	86	0	7
STR	86	144	0
SI_	86	144	0	96	48	2
STR	86	144	6
SI_	86	144	6	96	48	4
XTP	86	192	0
XTP	86	192	6
TAP	86	336	3
XTP	87	0	3
XTP	87	0	4
TAP	87	48	3
TAP	87	48	4
XTP	87	96	2
XTP	87	96	5
TAP	87	144	2
TAP	87	144	5
XST	87	192	0
SI_	87	192	0	96	48	4
XST	87	192	7
SI_	87	192	7	96	48	3
TAP	87	216	1
TAP	87	216	6
XTP	87	240	2
XTP	87	240	5
XTP	87	288	0
TTP	87	288	0	C	1	M1
XTP	87	288	7
BRK	88	0	1
BST	88	0	6
SI_	88	0	6	96	48	2
TAP	88	96	1
STR	88	144	1
SI_	88	144	1	96	48	5
STR	88	240	0
SI_	88	240	0	96	48	4
TAP	88	240	1
TAP	88	336	0
STR	88	336	7
SI_	88	336	7	96	48	3
STR	89	48	6
SCL	89	48	6	96	96	1
TAP	89	48	7
HLD	89	144	0	144
STR	89	288	7
SCL	89	288	7	96	48	4
TAP	89	336	1
STR	90	0	3
SCL	90	0	3	96	48	0
XTP	90	0	7
XTP	90	96	3
TAP	90	96	5
XTP	90	192	0
TAP	90	192	7
XTP	90	240	0
STR	90	240	7
SI_	90	240	7	96	48	4
STR	90	336	2
SI_	90	336	2	96	48	5
XTP	90	336	7
XTP	91	48	2
STR	91	48	6
SI_	91	48	6	96	48	1
STR	91	144	3
SI_	91	144	3	96	48	0
XTP	91	144	6
XTP	91	240	3
XTP	91	240	4
XHO	91	336	0	96
STR	91	336	5
SXL	91	336	5	96	240	0
XST	92	144	4
SCL	92	144	4	96	48	1
TTP	92	240	0	C	1	M1
STR	92	336	2
SXR	92	336	2	96	240	7
XHO	92	336	7	96
XST	93	144	3
SCR	93	144	3	96	48	6
TTP	93	240	0	C	1	M1
TAP	94	0	0
HLD	94	0	5	96
TAP	94	96	4
HLD	94	144	2	96
TAP	94	144	7
TAP	94	240	5
TAP	94	288	1
TAP	94	288	6
TAP	94	336	0
TAP	94	336	7
TAP	95	48	1
TAP	95	48	6
TAP	95	96	2
TAP	95	96	5
TAP	95	144	3
TAP	95	144	4
TAP	95	192	2
TAP	95	216	3
TAP	95	240	0
TAP	95	288	5
TAP	95	312	4
TAP	95	336	7
TTP	96	0	0	C	0	M1
TAP	96	0	2
TTP	96	192	0	C	0	M1
TAP	96	192	6
TTP	96	336	0	C	0	M1
TAP	96	336	1
TTP	97	48	0	E	0	M1
TAP	97	48	5
TTP	97	144	0	C	0	M1
TAP	97	144	2
TTP	97	240	4	E	0	M1
TAP	97	240	6
TTP	97	336	0	C	0	M1
HLD	97	336	0	432
TTP	99	0	0	E	0	M1
TTP	99	24	7	E	0	M1
TTP	99	48	6	E	0	M1
TTP	99	72	5	E	0	M1
TTP	99	96	4	E	0	M1
TTP	99	120	3	E	0	M1
TTP	99	144	2	E	0	M1
TTP	99	168	1	E	0	M1
TTP	99	192	0	E	0	M1
TTP	99	216	7	E	0	M1
TTP	99	240	6	E	0	M1
TTP	99	264	5	E	0	M1
TTP	99	288	4	E	0	M1
TTP	100	0	0	C	0	M1
HLD	100	0	2	96
TTP	100	144	0	C	0	M1
HLD	100	144	5	96
TAP	100	288	1
TTP	100	288	7	E	0	M1
TAP	100	304	2
TAP	100	320	3
TTP	101	0	1	E	0	M1
TAP	101	0	6
TAP	101	16	5
TAP	101	32	4
TAP	101	96	0
TAP	101	96	7
TTP	101	336	0	C	0	M1

T_REC_TAP	477
T_REC_BRK	7
T_REC_XTP	59
T_REC_HLD	40
T_REC_XHO	4
T_REC_STR	86
T_REC_BST	1
T_REC_XST	9
T_REC_TTP	46
T_REC_THO	2
T_REC_SLD	96
T_REC_ALL	827
T_NUM_TAP	677
T_NUM_BRK	8
T_NUM_HLD	46
T_NUM_SLD	96
T_NUM_ALL	827
T_JUDGE_TAP	685
T_JUDGE_HLD	140
T_JUDGE_SLD	96
T_JUDGE_ALL	921
TTM_EACHPAIRS	174
TTM_SCR_TAP	338500
TTM_SCR_BRK	20800
TTM_SCR_HLD	46000
TTM_SCR_SLD	144000
TTM_SCR_ALL	549300
TTM_SCR_S	532050
TTM_SCR_SS	548500
TTM_RAT_ACV	10014

