VERSION	0.00.00	1.03.00
FES_MODE	0
BPM_DEF	170.000	170.000	170.000	170.000
MET_DEF	4	4
RESOLUTION	384
CLK_DEF	384
COMPATIBLE_CODE	MA2

BPM	0	0	170.000
MET	0	0	4	4

HLD	2	0	5	192
THO	2	192	0	144	C	0	M1
HLD	4	0	2	192
THO	4	192	0	144	C	0	M1
TAP	6	0	5
TAP	6	96	5
TAP	6	192	4
TAP	6	288	3
TAP	8	0	2
TAP	8	96	2
HLD	8	192	3	336
HLD	8	288	4	384
TAP	9	288	3
HLD	10	0	0	96
HLD	10	0	6	96
TAP	10	192	3
TAP	10	192	5
TAP	10	288	2
HLD	10	336	2	144
HLD	10	336	4	144
TAP	11	192	0
TAP	11	192	6
HLD	12	0	1	96
HLD	12	0	7	96
TAP	12	192	2
TAP	12	192	4
TAP	12	288	5
HLD	12	336	3	144
HLD	12	336	5	144
HLD	13	144	2	144
TAP	13	144	4
STR	13	288	4
SUL	13	288	4	96	192	3
XHO	14	336	3	144
XHO	14	336	5	144
TAP	15	192	1
TAP	15	192	7
HLD	16	0	0	96
HLD	16	0	6	96
TAP	16	192	3
TAP	16	192	5
TAP	16	288	2
HLD	16	336	2	144
HLD	16	336	4	144
TAP	17	144	3
HLD	17	144	5	144
STR	17	288	3
SXR	17	288	3	96	192	4
TAP	19	0	5
STR	19	192	4
SCR	19	192	4	96	288	7
TAP	21	0	2
STR	21	192	3
SCL	21	192	3	96	288	0
TAP	23	0	6
STR	23	192	7
SI_	23	192	7	96	288	4
TAP	25	0	1
STR	25	192	0
SI_	25	192	0	96	288	3
TAP	26	288	4
TAP	27	0	4
HLD	27	0	5	96
TAP	27	96	2
HLD	27	144	2	96
HLD	27	240	0	96
HLD	27	336	7	96
HLD	28	48	5	96
TAP	28	144	4
TAP	28	240	3
TAP	28	288	3
TAP	28	336	4
TAP	29	0	2
HLD	29	48	2	96
HLD	29	144	5	96
HLD	29	240	7	96
HLD	29	336	0	96
HLD	30	48	2	96
TAP	30	144	3
TAP	30	240	4
TAP	30	288	4
TAP	30	336	3
HLD	31	0	2	96
TAP	31	96	5
HLD	31	144	5	96
HLD	31	240	7	96
HLD	31	336	0	96
HLD	32	48	2	96
TAP	32	144	3
TAP	32	240	3
STR	32	240	4
SCR	32	240	4	96	240	3
TAP	33	336	0
TAP	33	336	7
STR	34	0	0
SCR	34	0	0	96	96	3
STR	34	0	7
SCL	34	0	7	96	96	4
TAP	35	0	3
TAP	35	96	2
TAP	35	192	1
TAP	35	192	5
TAP	35	288	0
TAP	36	0	7
TAP	36	96	6
TAP	36	192	1
TAP	36	192	5
TAP	36	288	4
TAP	37	0	3
TAP	37	96	2
TAP	37	192	1
HLD	37	192	5	96
TAP	37	288	0
BRK	37	336	0
STR	38	48	7
SI_	38	48	7	96	96	3
HLD	39	0	2	384
TAP	39	96	3
TAP	39	192	4
TAP	39	288	5
HLD	40	0	6	384
TAP	40	96	4
TAP	40	192	3
TAP	40	288	2
HLD	41	0	1	192
TAP	41	96	3
HLD	41	192	5	192
TAP	41	288	4
HLD	42	0	0	192
TAP	42	96	6
STR	42	192	7
SCL	42	192	7	96	240	0
TAP	43	240	7
TAP	43	288	7
TAP	43	336	0
TAP	44	48	1
TAP	44	48	3
TAP	44	144	4
TAP	44	144	6
BRK	44	240	0
BRK	44	240	7
BRK	44	288	1
BRK	44	288	6
TAP	45	0	0
TAP	45	0	5
TAP	45	96	2
TAP	45	96	4
TAP	45	192	6
HLD	45	240	6	192
TAP	45	336	4
STR	46	48	0
SUL	46	48	0	96	96	4
TAP	46	240	7
TAP	46	288	7
TAP	46	336	0
TAP	47	0	0
TAP	47	96	2
TAP	47	144	2
TAP	47	144	3
TAP	47	240	1
HLD	47	240	4	96
TAP	47	336	0
STR	48	48	2
SCL	48	48	2	96	96	7
STR	48	48	6
SCL	48	48	6	96	96	3
TAP	48	336	1
HLD	49	0	1	96
TAP	49	96	3
TAP	49	144	3
TAP	49	240	2
TAP	49	240	4
TAP	49	336	4
TAP	49	336	5
TAP	50	48	6
TAP	50	48	7
TAP	50	144	0
TAP	50	144	1
TAP	50	240	2
TAP	50	240	3
TAP	50	336	5
TAP	51	0	4
HLD	51	0	6	96
TAP	51	96	2
TAP	51	144	2
HLD	51	192	1	96
HLD	51	192	3	96
TAP	51	336	2
STR	52	0	2
SUR	52	0	2	96	192	4
HLD	53	0	7	96
HLD	53	96	5	96
TAP	53	192	4
TAP	53	240	4
HLD	53	336	3	96
STR	53	336	5
SI_	53	336	5	96	96	2
HLD	54	144	0	96
TAP	54	240	7
TAP	54	288	7
TAP	54	336	1
HLD	55	0	0	96
HLD	55	96	2	96
TAP	55	192	3
TAP	55	240	3
STR	55	336	2
SI_	55	336	2	96	96	5
HLD	55	336	4	96
HLD	56	144	7	96
HLD	56	240	5	96
HLD	56	336	3	96
STR	57	48	1
SCL	57	48	1	96	144	4
HLD	57	336	6	96
STR	58	48	5
SCR	58	48	5	96	144	2
HLD	59	0	7	240
TAP	59	96	1
HLD	59	144	0	96
TAP	59	336	0
TAP	59	336	7
TAP	60	48	2
TAP	60	48	5
HLD	60	144	3	96
HLD	60	144	4	336
TAP	60	288	3
TAP	61	0	2
HLD	61	96	3	192
TAP	61	192	5
HLD	61	288	4	192
TAP	62	0	2
HLD	62	96	3	192
TAP	62	192	5
HLD	62	288	4	192
TTP	63	0	3	E	0	M1
HLD	63	96	3	192
TTP	63	192	5	E	0	M1
HLD	63	288	4	192
TTP	64	0	2	E	0	M1
HLD	64	96	3	192
TTP	64	192	6	E	0	M1
HLD	64	288	4	192
TAP	65	0	3
HLD	65	96	3	192
TAP	65	192	4
HLD	65	288	4	192
TAP	66	0	3
TAP	66	96	3
TTP	66	192	0	C	0	M1
BRK	67	0	0
BRK	67	0	7
TAP	67	192	5
TAP	67	240	5
TAP	67	288	4
HLD	67	336	6	96
TAP	68	48	0
TAP	68	96	0
TAP	68	144	7
TAP	68	240	2
TAP	68	240	6
TAP	68	336	3
HLD	69	0	2	96
TAP	69	0	4
HLD	69	96	0	96
TAP	69	192	7
TAP	69	240	7
STR	69	336	2
SI_	69	336	2	96	96	5
TAP	69	336	4
STR	70	144	6
SI_	70	144	6	96	96	2
HLD	70	336	0	192
TAP	71	144	7
TAP	71	192	0
TAP	71	240	1
TAP	71	288	2
TAP	71	336	3
TAP	71	336	4
TAP	72	48	5
TAP	72	96	5
TAP	72	144	4
TAP	72	144	6
TAP	72	240	1
TAP	72	240	3
HLD	73	0	0	96
HLD	73	0	7	96
HLD	73	144	1	96
HLD	73	144	2	96
HLD	73	288	3	96
HLD	73	288	4	96
TAP	74	48	5
STR	74	48	6
SCR	74	48	6	96	96	1
TAP	75	0	2
TAP	75	96	2
TAP	75	192	2
TAP	75	288	2
TAP	76	0	2
TAP	76	0	3
TAP	76	96	2
TAP	76	96	4
TAP	76	192	2
TAP	76	192	5
TAP	76	288	2
TAP	76	288	6
TAP	77	0	5
TAP	77	48	5
TAP	77	96	3
TAP	77	144	4
TAP	77	192	3
TAP	77	240	3
TAP	77	288	5
TAP	77	336	5
TAP	78	0	2
TAP	78	48	2
TAP	78	96	7
TAP	78	144	0
TAP	78	192	6
TAP	78	240	6
STR	78	288	0
SCR	78	288	0	96	240	7
HLD	80	0	5	768
HLD	82	0	4	768
HLD	84	0	3	384
HLD	85	0	2	672
TAP	85	96	3
TAP	85	192	3
TAP	85	288	3
TTP	86	0	4	E	0	M1
TAP	86	96	4
TTP	86	192	5	B	0	M1
TTP	86	192	6	B	0	M1
TAP	86	288	3
TAP	86	336	3
TAP	87	0	2
TAP	87	48	2
TAP	87	96	4
TAP	87	144	3
TAP	87	144	5
BRK	87	240	1
BRK	87	240	6
BRK	87	288	1
BRK	87	288	6
HLD	88	0	0	96
TAP	88	96	2
TAP	88	144	2
TAP	88	240	3
STR	88	336	2
SI_	88	336	2	96	96	5
HLD	88	336	4	96
HLD	89	144	7	96
TAP	89	240	0
TAP	89	288	0
TAP	89	336	6
HLD	90	0	7	96
HLD	90	96	5	96
TAP	90	192	4
TAP	90	240	4
HLD	90	336	3	96
STR	90	336	5
SI_	90	336	5	96	96	2
HLD	91	144	0	96
HLD	91	240	2	96
HLD	91	336	4	96
STR	92	48	6
SCR	92	48	6	96	144	3
TTP	92	144	0	C	1	M1
HLD	92	336	1	96
STR	93	48	2
SCL	93	48	2	96	144	5
TTP	93	144	0	C	1	M1
HLD	94	0	0	240
TAP	94	96	6
HLD	94	144	7	96
TAP	94	336	3
TAP	94	336	4
XTP	95	48	0
XTP	95	48	7
XTP	95	96	1
XTP	95	96	6
XTP	95	144	2
XTP	95	144	5
TTP	96	0	4	E	0	M1
TTP	96	96	3	E	0	M1
TTP	96	192	2	E	0	M1
TTP	96	288	1	E	0	M1
TTP	97	0	0	E	0	M1
TTP	97	96	7	E	0	M1
TTP	97	192	6	E	0	M1
TTP	97	288	5	E	0	M1
THO	98	0	0	384	C	0	M1
TTP	98	0	4	E	0	M1
HLD	100	0	0	96
HLD	100	0	7	96
HLD	100	144	4	96
HLD	100	144	6	96
HLD	100	288	1	96
HLD	100	288	3	96
TAP	101	48	0
TAP	101	48	7
HLD	101	96	0	240
HLD	101	96	7	240

T_REC_TAP	203
T_REC_BRK	11
T_REC_XTP	6
T_REC_HLD	104
T_REC_XHO	2
T_REC_STR	27
T_REC_BST	0
T_REC_XST	0
T_REC_TTP	19
T_REC_THO	3
T_REC_SLD	27
T_REC_ALL	402
T_NUM_TAP	255
T_NUM_BRK	11
T_NUM_HLD	109
T_NUM_SLD	27
T_NUM_ALL	402
T_JUDGE_TAP	266
T_JUDGE_HLD	356
T_JUDGE_SLD	27
T_JUDGE_ALL	649
TTM_EACHPAIRS	71
TTM_SCR_TAP	127500
TTM_SCR_BRK	28600
TTM_SCR_HLD	109000
TTM_SCR_SLD	40500
TTM_SCR_ALL	305600
TTM_SCR_S	295400
TTM_SCR_SS	304500
TTM_RAT_ACV	10036

