VERSION	0.00.00	1.03.00
FES_MODE	0
BPM_DEF	170.000	170.000	170.000	170.000
MET_DEF	4	4
RESOLUTION	384
CLK_DEF	384
COMPATIBLE_CODE	MA2

BPM	0	0	170.000
MET	0	0	4	4

HLD	6	0	3	1152
HLD	8	0	4	384
XTP	9	192	3
XTP	9	192	4
HLD	10	0	5	192
TAP	10	192	4
TAP	11	0	3
TAP	11	192	3
TAP	11	192	4
HLD	12	0	2	192
TAP	12	192	3
TAP	13	0	2
TAP	13	0	3
TAP	13	192	1
TAP	13	192	4
XHO	14	0	1	192
TAP	14	192	0
HLD	15	0	6	192
TAP	15	192	7
HLD	16	0	0	192
HLD	16	192	7	192
TAP	17	0	0
TAP	17	192	0
TAP	17	192	7
BRK	18	0	1
BRK	18	0	6
TTP	19	0	2	E	0	L1
TTP	19	192	3	E	0	L1
TTP	20	0	4	E	0	L1
TTP	21	0	6	E	0	L1
TTP	21	192	5	E	0	L1
TTP	22	0	4	E	0	L1
TTP	23	0	3	E	0	L1
TTP	23	192	2	E	0	L1
TTP	24	0	1	E	0	L1
THO	25	0	0	384	C	0	L1
HLD	27	0	1	192
HLD	27	192	2	192
TAP	28	0	3
TAP	28	192	3
TAP	28	192	4
HLD	29	0	6	192
HLD	29	192	5	192
TAP	30	0	4
TAP	30	192	3
TAP	30	192	6
HLD	31	0	5	192
HLD	31	192	4	192
HLD	32	0	3	192
TAP	32	192	2
HLD	33	0	3	192
HLD	33	0	4	192
TAP	34	0	2
TAP	34	0	5
XTP	34	192	1
XTP	34	192	6
STR	35	0	0
SXL	35	0	0	96	480	3
STR	37	0	4
SXL	37	0	4	96	480	7
TAP	39	0	0
TAP	39	96	0
TAP	39	192	1
TAP	40	0	2
TAP	40	96	2
TAP	40	192	3
TAP	41	0	4
TAP	41	96	4
TAP	41	192	5
TAP	42	0	6
TAP	42	96	6
TAP	42	192	7
TAP	43	0	0
TAP	43	96	0
TAP	43	192	7
TAP	43	288	7
XTP	44	0	1
XTP	44	0	6
TAP	44	192	3
TAP	44	192	4
TAP	45	0	2
TAP	45	96	2
TAP	45	96	3
TAP	45	192	5
TAP	45	288	4
TAP	45	288	5
TAP	46	0	3
TAP	46	96	2
TAP	46	96	4
XTP	46	192	1
XTP	46	288	1
TAP	47	0	6
TAP	47	96	6
TAP	47	96	7
TAP	47	192	1
TAP	47	288	0
TAP	47	288	1
TAP	48	0	7
TAP	48	96	0
TAP	48	96	6
XTP	48	192	1
XTP	48	192	5
TAP	49	0	5
TAP	49	96	4
TAP	49	192	3
TAP	49	192	6
TAP	50	0	2
TAP	50	96	3
TAP	50	192	1
TAP	50	192	4
XTP	51	0	0
TAP	51	96	0
XTP	51	192	1
TAP	51	288	1
TAP	52	0	2
TAP	52	96	3
TAP	52	96	4
XTP	52	192	2
XTP	52	192	5
TAP	53	0	6
TAP	53	96	6
TAP	53	96	7
TAP	53	192	1
TAP	53	288	0
TAP	53	288	1
TAP	54	0	7
TAP	54	96	0
TAP	54	96	6
XTP	54	192	5
XTP	54	288	5
TAP	55	0	2
TAP	55	96	2
TAP	55	96	3
TAP	55	192	5
TAP	55	288	4
TAP	55	288	5
TAP	56	0	6
TAP	56	96	6
XTP	56	192	0
XTP	56	192	7
XTP	56	288	0
XTP	56	288	7
XST	57	0	0
SCR	57	0	0	96	192	3
XTP	57	0	7
XST	58	0	4
SCR	58	0	4	96	192	7
HLD	59	0	0	192
TAP	59	192	7
TAP	59	288	7
TAP	60	0	6
TAP	60	96	5
XTP	60	192	3
XTP	60	192	4
HLD	61	0	5	192
TAP	61	192	4
HLD	62	0	2	192
TAP	62	192	3
STR	63	0	3
SI_	63	0	3	96	288	0
STR	63	0	4
SI_	63	0	4	96	288	7
XTP	64	192	1
XTP	64	192	6
THO	65	0	0	384	C	0	L1
STR	67	0	0
SXL	67	0	0	96	480	5
STR	69	0	7
SXR	69	0	7	96	480	2
STR	71	0	1
SXL	71	0	1	96	480	5
HLD	73	0	6	192
HLD	73	192	5	192
TAP	74	0	4
TAP	74	192	3
TAP	74	192	4
HLD	75	0	2	192
HLD	75	0	3	192
HLD	76	0	4	192
HLD	76	0	5	192
HLD	77	0	3	192
HLD	77	0	4	192
TAP	78	0	3
TAP	78	0	4
TAP	78	192	2
TAP	78	192	5
THO	79	0	0	384	C	0	L1
TTP	84	0	3	B	0	L1
TTP	84	192	1	B	0	L1
TTP	84	192	2	E	0	L1
TTP	85	0	4	B	0	L1
TTP	85	192	6	B	0	L1
TTP	85	192	6	E	0	L1
TTP	86	0	4	E	0	L1
TTP	86	192	3	E	0	L1
TTP	86	192	5	E	0	L1
TTP	87	0	0	C	1	L1
TTP	87	0	1	B	0	L1
TTP	87	0	6	B	0	L1
TAP	88	0	2
TAP	88	96	1
TAP	88	96	3
TAP	88	192	5
TAP	88	288	4
TAP	88	288	6
TAP	89	0	3
TAP	89	96	2
TAP	89	96	4
XTP	89	192	1
XTP	89	192	5
XTP	89	288	1
XTP	89	288	5
TAP	90	0	6
TAP	90	96	5
TAP	90	96	7
TAP	90	192	1
TAP	90	288	0
TAP	90	288	2
TAP	91	0	7
TAP	91	96	0
TAP	91	96	6
XTP	91	192	1
XTP	91	192	5
XST	92	0	4
SCR	92	0	4	96	192	7
XST	93	0	0
SCR	93	0	0	96	192	3
HLD	94	0	4	192
TAP	94	192	3
TAP	94	288	3
TAP	95	0	4
TAP	95	96	5
XTP	95	192	6
XTP	95	192	7
STR	96	0	0
SUR	96	0	0	96	480	3
STR	98	0	4
SUR	98	0	4	96	480	7
HLD	100	0	0	480
HLD	100	0	7	720

T_REC_TAP	124
T_REC_BRK	2
T_REC_XTP	33
T_REC_HLD	30
T_REC_XHO	1
T_REC_STR	9
T_REC_BST	0
T_REC_XST	4
T_REC_TTP	21
T_REC_THO	3
T_REC_SLD	13
T_REC_ALL	240
T_NUM_TAP	191
T_NUM_BRK	2
T_NUM_HLD	34
T_NUM_SLD	13
T_NUM_ALL	240
T_JUDGE_TAP	193
T_JUDGE_HLD	189
T_JUDGE_SLD	13
T_JUDGE_ALL	395
TTM_EACHPAIRS	52
TTM_SCR_TAP	95500
TTM_SCR_BRK	5200
TTM_SCR_HLD	34000
TTM_SCR_SLD	19500
TTM_SCR_ALL	154200
TTM_SCR_S	149400
TTM_SCR_SS	154000
TTM_RAT_ACV	10012

