VERSION	0.00.00	1.03.00
FES_MODE	0
BPM_DEF	170.000	170.000	170.000	170.000
MET_DEF	4	4
RESOLUTION	384
CLK_DEF	384
COMPATIBLE_CODE	MA2

BPM	0	0	170.000
MET	0	0	4	4

HLD	2	0	3	336
HLD	4	0	4	336
HLD	6	0	3	336
HLD	8	0	4	336
TAP	10	0	3
TAP	10	192	3
TAP	11	0	3
TAP	12	0	2
TAP	12	192	2
TAP	13	0	2
TAP	14	0	1
TAP	14	192	1
TAP	15	0	1
TAP	16	0	0
TAP	16	192	0
HLD	17	0	0	336
HLD	17	0	7	336
TAP	19	0	7
TAP	20	0	7
TAP	21	0	6
TAP	22	0	6
TAP	23	0	5
TAP	24	0	5
TAP	25	0	4
XTP	26	0	3
XTP	26	0	4
TAP	27	0	3
TAP	27	192	3
TAP	28	0	3
TAP	29	0	2
TAP	29	192	2
TAP	30	0	2
TAP	30	0	3
TAP	31	0	1
TAP	31	192	1
TAP	32	0	1
STR	33	0	0
SI_	33	0	0	96	288	4
HLD	35	0	5	384
TAP	36	192	5
TAP	37	0	4
TAP	37	192	4
XTP	38	0	3
XTP	38	0	4
TTP	39	0	3	B	0	L1
TTP	39	0	4	B	0	L1
TTP	40	0	2	B	0	L1
TTP	40	0	5	B	0	L1
TTP	41	0	1	B	0	L1
TTP	41	0	6	B	0	L1
TTP	42	0	1	E	0	L1
TTP	42	0	7	E	0	L1
THO	43	0	0	384	C	1	L1
TAP	45	0	0
TAP	45	96	0
TAP	45	192	0
TAP	46	0	1
TAP	46	96	1
TAP	46	192	1
TAP	47	0	2
TAP	47	96	2
TAP	47	192	2
TAP	48	0	3
TAP	48	0	4
TAP	48	192	3
TAP	48	192	4
HLD	49	0	4	192
HLD	50	0	3	192
XTP	51	0	4
XTP	51	192	3
XTP	51	192	4
TAP	52	0	4
TAP	52	96	3
BRK	52	192	4
TAP	53	0	5
TAP	53	96	5
TAP	53	192	5
TAP	54	0	6
TAP	54	96	6
TAP	54	192	6
TAP	55	0	7
TAP	55	96	7
TAP	55	192	7
TAP	56	0	0
TAP	56	96	0
BRK	56	192	0
STR	57	0	7
SI_	57	0	7	96	288	3
STR	59	0	0
SI_	59	0	0	96	288	4
TAP	61	0	5
TAP	61	192	5
TAP	62	0	4
TAP	62	0	5
STR	63	0	6
SI_	63	0	6	96	288	2
STR	65	0	1
SI_	65	0	1	96	288	5
HLD	67	0	6	336
HLD	69	0	7	336
HLD	71	0	0	336
HLD	73	0	1	336
TAP	75	0	2
TAP	76	0	2
TAP	77	0	3
TAP	78	0	3
XTP	79	0	3
XTP	79	0	4
TTP	80	0	5	B	0	L1
TTP	81	0	3	B	0	L1
TTP	82	0	4	B	0	L1
TTP	83	0	2	B	0	L1
TTP	84	0	3	B	0	L1
TTP	84	0	4	B	0	L1
TTP	85	0	2	B	0	L1
TTP	85	0	5	B	0	L1
THO	86	0	0	384	C	1	L1
TAP	88	0	7
TAP	88	96	7
TAP	88	192	7
TAP	89	0	6
TAP	89	96	6
TAP	89	192	6
TAP	90	0	5
TAP	90	96	5
TAP	90	192	4
TAP	90	288	4
TAP	91	0	3
TAP	91	96	3
XTP	91	192	3
XTP	91	192	4
STR	92	0	3
SI_	92	0	3	96	288	0
STR	92	0	4
SI_	92	0	4	96	288	7
STR	94	0	0
SI_	94	0	0	96	288	3
STR	94	0	7
SI_	94	0	7	96	288	4
TAP	96	0	3
TAP	96	192	3
TAP	97	0	4
TAP	97	192	4
STR	98	0	3
SI_	98	0	3	96	288	0
THO	100	0	0	720	C	0	L1

T_REC_TAP	81
T_REC_BRK	2
T_REC_XTP	11
T_REC_HLD	13
T_REC_XHO	0
T_REC_STR	10
T_REC_BST	0
T_REC_XST	0
T_REC_TTP	16
T_REC_THO	3
T_REC_SLD	10
T_REC_ALL	146
T_NUM_TAP	118
T_NUM_BRK	2
T_NUM_HLD	16
T_NUM_SLD	10
T_NUM_ALL	146
T_JUDGE_TAP	120
T_JUDGE_HLD	117
T_JUDGE_SLD	10
T_JUDGE_ALL	247
TTM_EACHPAIRS	12
TTM_SCR_TAP	59000
TTM_SCR_BRK	5200
TTM_SCR_HLD	16000
TTM_SCR_SLD	15000
TTM_SCR_ALL	95200
TTM_SCR_S	92150
TTM_SCR_SS	95000
TTM_RAT_ACV	10021

