VERSION	0.00.00	1.03.00
FES_MODE	0
BPM_DEF	174.000	174.000	174.000	174.000
MET_DEF	4	4
RESOLUTION	384
CLK_DEF	384
COMPATIBLE_CODE	MA2

BPM	0	0	174.000
MET	0	0	4	4

HLD	1	0	2	672
HLD	1	0	3	0
HLD	1	96	3	0
HLD	1	192	5	0
HLD	1	288	5	0
HLD	2	0	3	0
HLD	2	96	3	0
HLD	2	192	5	0
HLD	2	288	5	0
HLD	3	0	4	0
HLD	3	0	5	672
HLD	3	96	4	0
HLD	3	192	2	0
HLD	3	288	2	0
HLD	4	0	4	0
HLD	4	96	4	0
HLD	4	192	2	0
TTP	4	288	3	E	0	M1
TTP	4	300	3	B	0	M1
HLD	5	0	6	672
HLD	5	0	7	0
HLD	5	96	7	0
HLD	5	192	1	0
HLD	5	288	1	0
HLD	6	0	7	0
HLD	6	96	7	0
HLD	6	192	1	0
HLD	6	288	1	0
HLD	7	0	0	0
HLD	7	0	1	192
HLD	7	96	0	0
HLD	7	192	6	0
HLD	7	288	1	0
HLD	7	288	6	0
TTP	8	0	0	B	0	M1
TTP	8	0	3	B	0	M1
TTP	8	0	4	B	0	M1
TTP	8	0	5	B	0	M1
TTP	8	0	6	B	0	M1
TTP	8	0	7	B	0	M1
TTP	8	96	0	C	0	M1
TTP	8	96	0	E	0	M1
TTP	8	96	3	B	0	M1
TTP	8	96	4	E	0	M1
TTP	8	96	7	B	0	M1
TTP	8	192	0	B	0	M1
TTP	8	192	1	B	0	M1
TTP	8	192	2	B	0	M1
TTP	8	192	3	B	0	M1
TTP	8	192	3	E	0	M1
TTP	8	192	4	B	0	M1
TTP	8	192	5	B	0	M1
TTP	8	192	6	B	0	M1
TTP	8	192	7	B	0	M1
TTP	8	288	0	C	1	M1
TTP	8	288	2	B	0	M1
TTP	8	288	3	E	0	M1
TTP	8	288	5	B	0	M1
TTP	8	288	5	E	0	M1
XST	9	0	7
SI_	9	0	7	96	48	4
STR	9	96	4
SI_	9	96	4	96	48	7
STR	9	192	7
SI_	9	192	7	96	48	4
HLD	9	288	3	0
STR	10	0	2
SI_	10	0	2	96	48	6
STR	10	96	6
SI_	10	96	6	96	48	2
STR	10	192	2
SI_	10	192	2	96	48	6
HLD	10	288	5	0
STR	11	0	4
SI_	11	0	4	96	48	0
STR	11	96	0
SI_	11	96	0	96	48	4
STR	11	192	4
SI_	11	192	4	96	48	0
HLD	11	288	2	0
STR	12	0	1
SI_	12	0	1	96	48	5
STR	12	96	5
SI_	12	96	5	96	48	1
STR	12	192	1
SUL	12	192	1	96	48	5
SUR	12	192	1	96	48	5
XHO	13	0	3	0
XHO	13	0	7	0
HLD	13	48	6	0
HLD	13	96	1	0
HLD	13	96	5	0
HLD	13	144	2	0
HLD	13	192	3	0
HLD	13	192	7	0
HLD	13	240	6	0
HLD	13	288	1	0
HLD	13	288	5	0
HLD	13	336	2	0
HLD	14	0	3	0
HLD	14	0	7	0
HLD	14	48	3	0
HLD	14	48	7	0
HLD	14	96	2	0
HLD	14	96	6	0
HLD	14	144	2	0
HLD	14	144	6	0
HLD	14	192	1	0
HLD	14	192	5	0
HLD	14	240	1	0
HLD	14	240	5	0
HLD	14	288	0	0
HLD	14	288	4	0
HLD	14	336	0	0
HLD	14	336	4	0
HLD	15	0	5	0
HLD	15	24	1	0
HLD	15	48	5	0
HLD	15	72	1	0
HLD	15	96	6	0
HLD	15	120	2	0
HLD	15	144	6	0
HLD	15	168	2	0
HLD	15	192	7	0
HLD	15	216	3	0
HLD	15	240	7	0
HLD	15	264	3	0
XHO	15	288	6	0
XHO	15	304	5	0
XHO	15	320	4	0
XHO	15	336	0	0
XHO	15	352	1	0
XHO	15	368	2	0
XST	16	0	3
SXL	16	0	3	96	144	7
SXR	16	0	3	96	144	7
BRK	16	0	7
BRK	16	288	1
BRK	16	288	5
STR	17	0	6
SCL	17	0	6	96	48	4
STR	17	96	2
SCR	17	96	2	96	48	4
STR	17	192	6
SCR	17	192	6	96	48	0
STR	17	288	2
SCL	17	288	2	96	48	0
STR	18	0	6
SCL	18	0	6	96	48	4
STR	18	96	1
SXL	18	96	1	96	48	3
TAP	18	192	5
XTP	18	288	2
XTP	18	288	4
STR	19	0	6
SCL	19	0	6	96	48	4
TAP	19	48	6
STR	19	96	2
SCL	19	96	2	96	48	0
TAP	19	144	2
STR	19	192	5
SCL	19	192	5	96	48	3
TAP	19	240	5
STR	19	288	1
SCL	19	288	1	96	48	7
TAP	19	336	1
STR	20	0	4
SI_	20	0	4	96	48	7
TAP	20	48	4
STR	20	96	3
SI_	20	96	3	96	48	0
TAP	20	144	3
TAP	20	192	7
XTP	20	288	1
XTP	20	288	6
STR	21	0	4
SI_	21	0	4	96	48	0
TAP	21	48	3
TAP	21	96	2
STR	21	144	1
SI_	21	144	1	96	48	5
TAP	21	192	7
STR	21	240	6
SI_	21	240	6	96	24	4
STR	21	288	6
SI_	21	288	6	96	24	0
XST	21	336	6
SI_	21	336	6	96	24	2
TAP	22	96	0
TAP	22	120	0
TAP	22	168	1
TAP	22	168	7
TAP	22	240	3
TAP	22	240	4
XTP	22	288	1
XTP	22	288	5
STR	23	0	3
SI_	23	0	3	96	48	7
TAP	23	48	4
TAP	23	96	5
STR	23	144	6
SI_	23	144	6	96	48	2
TAP	23	192	0
STR	23	240	1
SI_	23	240	1	96	24	3
STR	23	288	1
SI_	23	288	1	96	24	7
XST	23	336	1
SI_	23	336	1	96	24	5
TAP	24	96	7
TAP	24	120	7
TAP	24	168	0
TAP	24	168	6
TTP	24	224	5	E	0	M1
TTP	24	240	4	B	0	M1
TTP	24	256	3	B	0	M1
TTP	24	272	3	E	0	M1
XST	25	0	0
SCR	25	0	0	96	192	5
XTP	25	0	5
STR	25	192	5
SUL	25	192	5	96	144	0
HLD	25	288	6	192
TAP	26	96	7
TAP	26	192	0
TAP	26	192	5
TAP	26	288	1
TAP	26	288	4
TAP	27	0	2
STR	27	0	7
SCL	27	0	7	96	192	2
STR	27	192	2
SUR	27	192	2	96	144	7
HLD	27	288	1	192
TAP	28	96	0
TAP	28	192	2
TAP	28	192	7
STR	28	288	3
SV_	28	288	3	96	48	4
TAP	28	288	6
TAP	29	96	6
TAP	29	144	6
TAP	29	192	7
TAP	29	240	7
TAP	29	288	0
TAP	29	336	0
TAP	30	0	1
TAP	30	48	1
TAP	30	96	2
TAP	30	144	2
TAP	30	192	3
TAP	30	240	3
TAP	30	288	4
TAP	30	336	4
HLD	31	0	4	48
HLD	31	0	5	48
HLD	31	96	4	48
HLD	31	96	5	48
HLD	31	192	2	48
HLD	31	192	4	48
HLD	31	264	3	48
HLD	31	264	5	48
TAP	31	336	0
TAP	31	336	7
TAP	32	0	1
HLD	32	0	6	72
TAP	32	72	4
TAP	32	96	5
TAP	32	144	3
TAP	32	144	6
TAP	32	192	0
TAP	32	192	7
TAP	32	240	1
TAP	32	240	6
BRK	32	288	2
BRK	32	288	5
TAP	33	0	1
TAP	33	0	4
TAP	33	48	2
TAP	33	72	3
TAP	33	96	2
TAP	33	144	3
TAP	33	144	4
TAP	33	192	5
TAP	33	216	4
TAP	33	240	5
TAP	33	288	3
TAP	33	288	6
TAP	33	336	2
TAP	33	336	4
TAP	34	0	5
TAP	34	24	4
TAP	34	48	5
TAP	34	72	4
TAP	34	96	5
TAP	34	144	4
TAP	34	144	6
TAP	34	192	1
TAP	34	216	3
TAP	34	240	1
TAP	34	264	3
TAP	34	288	1
TAP	34	336	2
TAP	34	336	4
TAP	35	0	3
TAP	35	0	6
TAP	35	48	5
TAP	35	72	4
TAP	35	96	5
TAP	35	120	4
TAP	35	144	6
TAP	35	192	0
TAP	35	192	7
TAP	35	240	1
TAP	35	240	7
TAP	35	288	1
TAP	35	288	6
TAP	35	336	2
TAP	35	336	6
HLD	36	0	1	48
HLD	36	0	5	48
HLD	36	72	2	48
HLD	36	72	4	48
HLD	36	144	3	48
HLD	36	144	5	48
HLD	36	216	1	48
HLD	36	216	4	48
TAP	36	288	3
TAP	36	288	4
TAP	36	336	2
TAP	36	336	5
BRK	37	0	1
BRK	37	0	6
TAP	37	192	5
TAP	37	216	3
TAP	37	240	5
TAP	37	264	3
TAP	37	288	4
TAP	37	312	2
TAP	37	336	4
TAP	37	360	2
TAP	38	0	5
TAP	38	24	4
TAP	38	48	6
TAP	38	72	2
TAP	38	96	3
TAP	38	120	1
TAP	38	144	4
HLD	38	168	3	48
HLD	38	216	6	48
TAP	38	264	4
TAP	38	288	5
TAP	38	312	4
TAP	38	336	5
TAP	38	360	4
XHO	39	0	3	48
XHO	39	0	5	48
XTP	39	72	3
XTP	39	72	6
XHO	39	144	2	48
XHO	39	144	4	48
XTP	39	216	1
XTP	39	216	4
XTP	39	288	3
XTP	39	288	6
XTP	39	336	1
XTP	39	336	5
TAP	40	0	2
TAP	40	24	4
TAP	40	48	2
TAP	40	72	4
TAP	40	120	3
TAP	40	120	5
TAP	40	168	2
TAP	40	168	4
HLD	40	216	1	48
TAP	40	216	3
TAP	40	264	0
TAP	40	288	1
TAP	40	312	7
TAP	40	336	2
TAP	40	360	6
TTP	41	0	0	C	1	M1
STR	43	0	6
SUL	43	0	6	96	480	3
STR	45	0	1
SUR	45	0	1	96	480	4
TTP	47	0	3	E	0	M1
TTP	47	192	5	E	0	M1
TTP	48	0	4	E	0	M1
BRK	48	96	2
BRK	48	96	5
BRK	48	240	2
BRK	48	240	5
BRK	48	288	2
BRK	48	288	5
XHO	49	0	6	384
TTP	49	96	5	E	0	M1
TTP	49	192	6	E	0	M1
TTP	49	288	7	E	0	M1
XHO	50	0	2	384
TTP	50	96	3	E	0	M1
TTP	50	192	2	E	0	M1
TTP	50	288	1	E	0	M1
XHO	51	0	5	384
TTP	51	96	5	E	0	M1
TTP	51	192	6	E	0	M1
TTP	51	288	7	E	0	M1
XHO	52	0	1	384
TTP	52	96	3	E	0	M1
TTP	52	192	2	E	0	M1
TTP	52	288	1	E	0	M1
XHO	53	0	7	384
TTP	53	96	7	E	0	M1
TTP	53	192	6	E	0	M1
TTP	53	288	5	E	0	M1
XHO	54	0	0	384
TTP	54	96	1	E	0	M1
TTP	54	192	2	E	0	M1
TTP	54	288	3	E	0	M1
TTP	55	0	4	E	0	M1
TTP	55	96	3	E	0	M1
TTP	55	96	5	E	0	M1
TTP	55	192	2	B	0	M1
TTP	55	192	5	B	0	M1
TTP	55	288	1	E	0	M1
TTP	55	288	7	E	0	M1
TTP	56	0	0	B	0	M1
TTP	56	0	3	B	0	M1
TTP	56	0	4	B	0	M1
TTP	56	0	5	B	0	M1
TTP	56	0	6	B	0	M1
TTP	56	0	7	B	0	M1
TTP	56	96	0	C	0	M1
TTP	56	96	0	E	0	M1
TTP	56	96	3	B	0	M1
TTP	56	96	4	E	0	M1
TTP	56	96	7	B	0	M1
TTP	56	192	0	B	0	M1
TTP	56	192	1	B	0	M1
TTP	56	192	2	B	0	M1
TTP	56	192	3	B	0	M1
TTP	56	192	3	E	0	M1
TTP	56	192	4	B	0	M1
TTP	56	192	5	B	0	M1
TTP	56	192	6	B	0	M1
TTP	56	192	7	B	0	M1
TTP	56	288	0	C	1	M1
XHO	57	0	0	48
XHO	57	0	7	48
HLD	57	96	0	48
HLD	57	96	1	48
HLD	57	192	1	48
HLD	57	192	2	48
HLD	57	288	2	48
HLD	57	288	3	48
HLD	58	0	3	48
HLD	58	0	4	48
HLD	58	96	4	48
HLD	58	96	5	48
HLD	58	192	5	48
HLD	58	192	6	48
HLD	58	288	6	48
HLD	58	288	7	48
TAP	59	0	0
TAP	59	0	7
TAP	59	48	7
TAP	59	96	6
TAP	59	96	7
TAP	59	144	6
TAP	59	192	5
TAP	59	192	6
TAP	59	240	5
TAP	59	288	4
TAP	59	288	5
TAP	59	336	4
TAP	60	0	3
TAP	60	0	4
TAP	60	48	3
TAP	60	48	4
TAP	60	96	2
TAP	60	96	3
TAP	60	144	0
TAP	60	144	1
STR	60	192	0
SI_	60	192	0	96	48	3
STR	60	192	7
SI_	60	192	7	96	48	4
STR	61	0	7
SI_	61	0	7	96	48	4
TAP	61	48	7
STR	61	96	0
SI_	61	96	0	96	48	3
TAP	61	144	0
STR	61	192	6
SI_	61	192	6	96	48	3
TAP	61	240	6
STR	61	288	1
SI_	61	288	1	96	48	4
TAP	61	336	1
STR	62	0	5
SI_	62	0	5	96	48	0
TAP	62	48	5
STR	62	96	2
SI_	62	96	2	96	48	7
TAP	62	144	2
STR	62	192	4
SI_	62	192	4	96	48	7
TAP	62	240	4
STR	62	288	3
SI_	62	288	3	96	48	0
TAP	62	336	3
XTP	63	0	6
XTP	63	24	5
XTP	63	48	4
XTP	63	72	3
XTP	63	96	2
XTP	63	120	1
XTP	63	144	0
XTP	63	168	7
XTP	63	192	6
XTP	63	204	5
XTP	63	216	4
XTP	63	228	3
XTP	63	240	2
XTP	63	252	1
XTP	63	264	0
XTP	63	276	7
XTP	63	288	6
XTP	63	300	5
XTP	63	312	4
XTP	63	324	3
XTP	63	336	2
XTP	63	348	1
XTP	63	360	0
XTP	63	372	7
XST	64	0	2
SI_	64	0	2	96	144	5
XST	64	0	6
SI_	64	0	6	96	144	1
TAP	64	288	3
TAP	64	288	7
BRK	65	0	1
BRK	65	0	3
TAP	65	48	3
TAP	65	48	4
TAP	65	96	4
HLD	65	96	6	48
TAP	65	144	7
TAP	65	168	6
TAP	65	192	0
TAP	65	216	5
TAP	65	240	1
TAP	65	264	4
TAP	65	288	2
TAP	65	312	3
HLD	65	336	1	96
TAP	66	48	0
TAP	66	96	3
HLD	66	96	7	48
TAP	66	144	5
TAP	66	168	7
TAP	66	192	4
TAP	66	216	6
TAP	66	240	3
TAP	66	264	5
TAP	66	288	2
TAP	66	312	4
TAP	66	336	1
TAP	66	360	3
HLD	67	0	0	48
TAP	67	48	2
TAP	67	96	1
TAP	67	96	4
TAP	67	144	3
HLD	67	144	7	48
TAP	67	192	5
TAP	67	216	6
TAP	67	240	3
TAP	67	264	4
TAP	67	288	1
TAP	67	312	2
HLD	67	336	0	96
TAP	68	48	3
TAP	68	72	1
TAP	68	96	4
TAP	68	120	2
TAP	68	144	5
TAP	68	168	3
STR	68	192	7
SI_	68	192	7	96	48	3
BRK	68	288	1
BRK	68	288	7
TAP	69	0	1
TAP	69	48	2
TAP	69	48	3
TAP	69	96	3
TAP	69	96	4
TAP	69	144	5
TAP	69	168	4
TAP	69	216	3
TAP	69	216	6
TAP	69	264	5
TAP	69	288	4
TAP	69	336	3
HLD	69	336	6	48
TAP	70	0	7
TAP	70	24	0
TAP	70	48	1
TAP	70	72	2
TAP	70	96	7
TAP	70	120	6
TAP	70	144	5
TAP	70	168	4
TAP	70	192	0
TAP	70	216	7
TAP	70	240	6
TAP	70	264	5
TAP	70	288	1
TAP	70	312	0
TAP	70	336	7
TAP	70	360	6
TAP	71	0	2
HLD	71	24	2	72
TAP	71	96	7
TAP	71	144	0
HLD	71	144	6	48
TAP	71	192	4
TAP	71	216	5
TAP	71	240	0
TAP	71	264	7
TAP	71	288	2
TAP	71	312	3
TAP	71	336	0
TAP	71	360	7
TAP	72	0	1
HLD	72	0	6	72
HLD	72	72	4	72
TAP	72	144	3
XTP	72	192	1
XTP	72	192	5
BRK	72	288	0
BRK	72	336	0
TAP	73	0	4
TAP	73	0	6
TAP	73	48	3
TAP	73	48	4
HLD	73	96	1	48
TAP	73	96	3
TAP	73	144	0
TAP	73	168	1
TAP	73	192	7
TAP	73	216	2
TAP	73	240	6
TAP	73	264	3
TAP	73	288	5
TAP	73	312	4
HLD	73	336	6	96
TAP	74	48	7
HLD	74	96	0	48
TAP	74	96	4
TAP	74	144	2
TAP	74	168	0
TAP	74	192	3
TAP	74	216	1
TAP	74	240	4
TAP	74	264	2
TAP	74	288	5
TAP	74	312	3
TAP	74	336	6
TAP	74	360	4
HLD	75	0	7	48
TAP	75	48	5
TAP	75	96	3
TAP	75	96	6
HLD	75	144	0	48
TAP	75	144	4
TAP	75	192	2
TAP	75	216	1
TAP	75	240	4
TAP	75	264	3
TAP	75	288	6
TAP	75	312	5
HLD	75	336	7	96
TAP	76	48	4
TAP	76	72	6
TAP	76	96	3
TAP	76	120	5
TAP	76	144	2
TAP	76	168	4
TAP	76	192	0
TAP	76	216	7
TAP	76	240	1
TAP	76	264	6
TAP	76	288	0
TAP	76	312	7
TAP	76	336	1
TAP	76	360	6
TAP	77	0	0
TAP	77	0	7
TAP	77	48	0
TAP	77	48	7
TAP	77	96	6
HLD	77	120	6	48
TAP	77	168	3
HLD	77	192	3	48
TAP	77	240	1
HLD	77	264	1	48
TAP	77	312	4
HLD	77	336	4	48
TAP	78	0	7
TAP	78	48	0
TAP	78	48	6
TAP	78	96	1
HLD	78	120	1	48
TAP	78	168	4
HLD	78	192	4	48
TAP	78	240	6
HLD	78	264	6	48
TAP	78	312	3
HLD	78	336	3	48
TAP	79	0	0
TAP	79	24	4
TAP	79	48	0
TAP	79	72	5
TAP	79	96	0
TAP	79	120	6
TAP	79	144	0
TAP	79	168	7
TAP	79	192	0
TAP	79	204	1
TAP	79	216	2
TAP	79	228	3
TAP	79	240	4
TAP	79	252	5
TAP	79	264	6
TAP	79	276	7
TAP	79	288	0
TAP	79	300	1
TAP	79	312	2
TAP	79	324	3
TAP	79	336	4
TAP	79	348	5
TAP	79	360	6
TAP	79	372	7
BST	80	0	0
SXL	80	0	0	96	144	7
BST	80	0	4
SXL	80	0	4	96	144	3
BRK	80	288	1
BRK	80	288	5
STR	81	0	7
SI_	81	0	7	96	48	3
TAP	81	48	2
STR	81	96	2
SI_	81	96	2	96	48	0
XTP	81	192	5
XTP	81	288	0
XTP	81	288	7
STR	82	0	0
SI_	82	0	0	96	48	4
TAP	82	48	5
STR	82	96	5
SI_	82	96	5	96	48	7
XTP	82	192	2
XTP	82	288	0
XTP	82	288	7
STR	83	0	7
SI_	83	0	7	96	48	3
TAP	83	48	2
STR	83	96	2
SI_	83	96	2	96	48	0
STR	83	192	4
SI_	83	192	4	96	48	0
TAP	83	240	4
STR	83	288	1
SI_	83	288	1	96	48	3
STR	84	0	6
SI_	84	0	6	96	48	2
TAP	84	48	6
STR	84	96	4
SSL	84	96	4	96	96	0
STR	84	192	0
SF_	84	192	0	96	48	4
HLD	85	0	1	0
HLD	85	0	3	0
HLD	85	48	0	0
HLD	85	96	4	0
HLD	85	96	6	0
HLD	85	144	7	0
HLD	85	192	2	0
HLD	85	192	4	0
HLD	85	240	0	0
HLD	85	288	3	0
HLD	85	288	5	0
HLD	85	336	7	0
HLD	86	0	2	0
HLD	86	24	3	0
HLD	86	48	2	0
HLD	86	96	7	0
HLD	86	144	4	0
HLD	86	144	5	0
HLD	86	192	2	0
HLD	86	216	3	0
TAP	86	264	0
TAP	86	264	7
BRK	86	288	1
BRK	86	288	6
TAP	87	0	7
TAP	87	24	1
TAP	87	48	4
TAP	87	72	0
TAP	87	96	6
TAP	87	120	2
TAP	87	144	4
TAP	87	168	1
TAP	87	192	5
TAP	87	216	3
TAP	87	240	4
TAP	87	264	1
TAP	87	288	7
TAP	87	312	0
TAP	87	336	7
TAP	87	360	0
TAP	88	0	6
TAP	88	12	5
TAP	88	24	4
TAP	88	72	1
TAP	88	84	2
TAP	88	96	3
TAP	88	144	6
TAP	88	156	5
TAP	88	168	4
TAP	88	192	1
TAP	88	204	2
TAP	88	216	3
TAP	88	228	4
TAP	88	240	5
TAP	88	252	6
TAP	88	264	7
TAP	88	276	0
STR	88	288	1
SI_	88	288	1	96	24	5
TAP	88	300	2
TAP	88	312	3
TAP	88	324	4
TAP	88	336	5
TAP	88	348	6
TAP	88	360	7
TAP	88	372	0
XTP	89	0	1
BRK	89	0	4

T_REC_TAP	385
T_REC_BRK	24
T_REC_XTP	48
T_REC_HLD	154
T_REC_XHO	20
T_REC_STR	60
T_REC_BST	2
T_REC_XST	7
T_REC_TTP	81
T_REC_THO	0
T_REC_SLD	71
T_REC_ALL	852
T_NUM_TAP	581
T_NUM_BRK	26
T_NUM_HLD	174
T_NUM_SLD	71
T_NUM_ALL	852
T_JUDGE_TAP	607
T_JUDGE_HLD	272
T_JUDGE_SLD	71
T_JUDGE_ALL	950
TTM_EACHPAIRS	125
TTM_SCR_TAP	290500
TTM_SCR_BRK	67600
TTM_SCR_HLD	174000
TTM_SCR_SLD	106500
TTM_SCR_ALL	638600
TTM_SCR_S	616950
TTM_SCR_SS	636000
TTM_RAT_ACV	10040

