VERSION	0.00.00	1.03.00
FES_MODE	0
BPM_DEF	174.000	174.000	174.000	174.000
MET_DEF	4	4
RESOLUTION	384
CLK_DEF	384
COMPATIBLE_CODE	MA2

BPM	0	0	174.000
MET	0	0	4	4

TAP	1	0	5
TAP	1	96	5
TAP	1	192	3
TAP	1	192	5
TAP	1	288	3
TAP	1	288	5
TAP	2	0	5
TAP	2	96	5
TAP	2	192	4
TAP	2	192	5
TAP	2	288	4
TAP	2	288	5
TAP	3	0	2
TAP	3	96	2
TAP	3	192	2
TAP	3	192	4
TAP	3	288	2
TAP	3	288	4
TAP	4	0	2
TAP	4	96	2
TAP	4	192	2
TAP	4	192	3
XTP	4	288	1
XTP	4	288	3
TAP	5	0	2
TAP	5	96	2
TAP	5	192	2
TAP	5	192	3
TAP	5	288	2
TAP	5	288	4
TAP	6	0	2
TAP	6	0	5
TAP	6	96	5
TAP	6	192	3
TAP	6	192	5
TAP	6	288	4
TAP	6	288	5
HLD	7	0	4	96
HLD	7	0	5	96
HLD	7	192	2	96
HLD	7	192	3	96
TTP	8	0	5	E	0	M1
TTP	8	96	4	E	0	M1
TTP	8	192	3	E	0	M1
BRK	8	288	1
BRK	8	288	6
TAP	9	0	2
TAP	9	0	3
TAP	9	96	3
TAP	9	192	2
TAP	9	192	3
TAP	9	288	3
TAP	9	288	4
TAP	10	0	4
TAP	10	0	5
TAP	10	96	4
TAP	10	192	4
TAP	10	192	5
TAP	10	288	3
TAP	10	288	6
TAP	11	0	4
TAP	11	0	5
TAP	11	96	4
TAP	11	192	4
TAP	11	192	5
TAP	11	288	3
TAP	11	288	4
TAP	12	0	2
TAP	12	0	3
TAP	12	96	3
TAP	12	96	4
BRK	12	192	1
BRK	12	192	6
STR	13	0	2
SCR	13	0	2	96	144	5
TAP	13	0	5
TAP	13	192	6
TAP	13	288	6
TAP	14	0	2
STR	14	0	5
SCL	14	0	5	96	144	2
TAP	14	192	1
TAP	14	288	1
TAP	15	0	2
TAP	15	0	4
TAP	15	96	3
TAP	15	96	5
TAP	15	192	2
TAP	15	192	6
TAP	15	288	1
TAP	15	288	5
BRK	16	0	7
XTP	16	288	2
XTP	16	288	5
HLD	17	0	1	576
TAP	17	96	3
TAP	17	192	3
TAP	17	288	2
TAP	18	0	3
TAP	18	96	3
TAP	18	192	2
TAP	18	288	3
TAP	18	288	4
HLD	19	0	5	480
TAP	19	96	4
TAP	19	192	4
TAP	19	288	6
TAP	20	0	4
TAP	20	96	4
TAP	20	192	3
TAP	20	192	6
TAP	21	0	2
TAP	21	48	2
TAP	21	96	3
TAP	21	192	5
TAP	21	240	5
TAP	21	288	4
TAP	22	0	1
TAP	22	48	1
TAP	22	96	3
TAP	22	192	2
TAP	22	192	4
TAP	22	288	3
TAP	22	288	5
TAP	23	0	5
TAP	23	48	5
TAP	23	96	3
TAP	23	144	3
TAP	23	192	4
TAP	23	240	4
STR	23	288	2
SUL	23	288	2	96	144	5
TAP	24	192	7
BRK	24	288	7
XTP	25	0	0
STR	25	0	6
SCL	25	0	6	96	144	3
TAP	25	192	1
HLD	25	288	0	192
TAP	26	96	3
TAP	26	192	7
TAP	26	288	2
TAP	26	288	6
STR	27	0	1
SCR	27	0	1	96	144	4
XTP	27	0	5
TAP	27	192	6
HLD	27	288	7	192
TAP	28	96	4
TAP	28	192	0
TAP	28	288	1
TAP	28	288	6
XHO	29	0	2	96
XHO	29	0	5	96
TAP	29	192	1
TAP	29	192	3
HLD	29	288	0	192
TAP	30	96	1
TAP	30	192	6
TAP	30	192	7
TAP	30	288	0
TAP	30	288	5
HLD	31	0	1	96
HLD	31	96	3	96
HLD	31	192	4	96
STR	31	288	6
SCL	31	288	6	96	192	1
BRK	32	288	0
BRK	32	288	7
TAP	33	0	2
TAP	33	48	2
TAP	33	96	4
TAP	33	144	4
TAP	33	192	2
TAP	33	240	2
TAP	33	288	7
TAP	33	336	7
TAP	34	0	3
TAP	34	48	3
TAP	34	96	6
TAP	34	144	5
TAP	34	192	3
TAP	34	240	2
TAP	34	288	2
TAP	34	288	4
TAP	35	0	5
TAP	35	48	5
TAP	35	96	0
TAP	35	144	1
TAP	35	192	5
TAP	35	240	6
TAP	35	288	4
STR	35	288	6
SI_	35	288	6	96	48	3
STR	36	0	0
SI_	36	0	0	96	48	4
TAP	36	96	7
TAP	36	192	5
BRK	36	288	0
BRK	36	288	6
TAP	37	0	1
TAP	37	48	1
TAP	37	96	4
TAP	37	144	5
TAP	37	192	0
TAP	37	240	1
TAP	37	288	1
TAP	37	288	7
TAP	38	0	6
TAP	38	48	6
TAP	38	96	3
TAP	38	144	2
TAP	38	192	7
TAP	38	240	6
TAP	38	288	0
TAP	38	288	6
XTP	39	0	1
XTP	39	48	1
XTP	39	48	3
XTP	39	144	6
XTP	39	192	4
XTP	39	192	6
XTP	39	288	3
XTP	39	288	4
XTP	39	336	2
XTP	39	336	5
XTP	40	48	0
XTP	40	48	7
XST	40	96	0
SCR	40	96	0	96	96	3
XST	40	96	7
SCL	40	96	7	96	96	4
TTP	41	0	0	C	1	M1
TTP	41	0	1	B	0	M1
TTP	41	0	6	B	0	M1
HLD	45	0	3	768
HLD	45	0	4	384
THO	47	0	0	384	C	0	M1
XTP	48	96	0
XTP	48	96	7
XTP	48	240	1
XTP	48	240	6
BRK	48	288	1
BRK	48	288	6
HLD	49	0	2	192
HLD	49	192	3	192
TTP	50	0	3	E	0	M1
TTP	50	96	2	E	0	M1
TTP	50	192	1	E	0	M1
TTP	50	192	7	E	0	M1
HLD	51	0	5	192
HLD	51	192	4	192
TTP	52	0	5	E	0	M1
TTP	52	96	6	E	0	M1
TTP	52	192	1	E	0	M1
TTP	52	192	7	E	0	M1
TTP	53	0	0	E	0	M1
TTP	53	96	0	C	0	M1
TTP	53	192	5	E	0	M1
TTP	53	288	6	E	0	M1
TTP	54	0	0	E	0	M1
TTP	54	96	0	C	0	M1
TTP	54	192	3	E	0	M1
TTP	54	288	2	E	0	M1
TTP	55	0	0	E	0	M1
TTP	55	96	0	C	0	M1
TTP	55	192	4	E	0	M1
TTP	55	288	3	E	0	M1
TTP	55	288	5	E	0	M1
THO	56	0	0	288	C	0	M1
XST	57	0	0
SCR	57	0	0	96	288	6
XTP	57	0	7
STR	58	0	7
SCL	58	0	7	96	288	1
STR	59	0	0
SUL	59	0	0	96	288	7
THO	60	0	0	192	C	0	M1
TAP	61	0	1
TAP	61	48	1
TAP	61	96	4
TAP	61	144	4
TAP	61	192	3
TAP	61	240	3
TAP	61	288	6
TAP	61	336	6
TAP	62	0	3
TAP	62	48	3
TAP	62	96	4
TAP	62	144	4
TAP	62	192	1
TAP	62	240	1
TAP	62	288	6
TAP	62	336	6
TAP	63	0	0
TAP	63	24	7
TAP	63	48	0
TAP	63	72	7
TAP	63	96	0
TAP	63	120	7
TAP	63	144	0
TAP	63	168	7
XTP	63	192	0
TAP	63	216	7
TAP	63	240	0
TAP	63	264	7
TAP	63	288	0
TAP	63	312	7
TAP	63	336	0
TAP	63	360	7
BRK	64	0	1
TAP	64	288	3
TAP	64	288	4
STR	65	0	2
SI_	65	0	2	96	48	7
TAP	65	48	2
STR	65	96	6
SI_	65	96	6	96	48	3
TAP	65	144	6
TAP	65	192	0
TAP	65	288	1
TAP	65	288	4
STR	66	0	5
SI_	66	0	5	96	48	0
TAP	66	48	5
STR	66	96	1
SI_	66	96	1	96	48	4
TAP	66	144	1
TAP	66	192	7
TAP	66	288	3
TAP	66	288	6
TAP	67	0	2
TAP	67	0	4
TAP	67	48	3
TAP	67	96	4
TAP	67	96	6
TAP	67	192	3
TAP	67	192	5
TAP	67	240	4
TAP	67	288	1
TAP	67	288	3
STR	68	0	0
SI_	68	0	0	96	48	4
STR	68	96	5
SCR	68	96	5	96	96	2
BRK	68	192	3
TAP	69	0	1
TAP	69	0	6
TAP	69	96	2
TAP	69	144	3
TAP	69	192	2
TAP	69	192	4
TAP	69	288	3
HLD	69	288	6	96
TAP	70	0	7
TAP	70	96	0
TAP	70	96	5
TAP	70	192	0
TAP	70	192	1
TAP	70	240	2
TAP	70	240	7
TAP	70	288	3
TAP	70	288	6
TAP	71	0	2
TAP	71	48	2
TAP	71	96	3
TAP	71	144	1
TAP	71	192	7
TAP	71	240	0
HLD	71	288	6	96
XTP	72	0	4
XTP	72	72	3
XTP	72	72	4
XTP	72	144	1
XTP	72	144	3
XTP	72	192	1
XTP	72	192	3
BRK	72	288	0
STR	73	0	1
SI_	73	0	1	96	48	4
TAP	73	48	1
STR	73	96	5
SI_	73	96	5	96	48	0
TAP	73	144	5
TAP	73	192	3
TAP	73	288	2
TAP	73	288	7
STR	74	0	6
SI_	74	0	6	96	48	3
TAP	74	48	6
STR	74	96	2
SI_	74	96	2	96	48	7
TAP	74	144	2
TAP	74	192	4
TAP	74	288	0
TAP	74	288	5
TAP	75	0	4
TAP	75	0	6
TAP	75	48	5
TAP	75	96	2
TAP	75	96	4
TAP	75	192	1
TAP	75	192	3
TAP	75	240	2
TAP	75	288	3
TAP	75	288	5
STR	76	0	4
SI_	76	0	4	96	48	0
STR	76	96	1
SCR	76	96	1	96	96	6
BRK	76	192	7
TAP	77	0	0
TAP	77	48	0
TAP	77	96	5
TAP	77	144	5
TAP	77	192	3
TAP	77	240	3
TAP	77	288	7
TAP	77	336	7
TAP	78	0	2
TAP	78	48	2
TAP	78	96	0
TAP	78	144	0
TAP	78	192	7
TAP	78	240	7
TAP	78	288	5
TAP	78	336	5
TAP	79	0	3
TAP	79	0	4
TAP	79	48	3
TAP	79	48	4
TAP	79	96	3
TAP	79	96	4
TAP	79	144	3
TAP	79	144	4
TAP	79	192	2
TAP	79	216	5
TAP	79	240	2
TAP	79	264	5
STR	79	288	2
SCL	79	288	2	96	192	5
TAP	79	312	5
TAP	79	336	2
TAP	79	360	5
BRK	80	288	1
BRK	80	288	6
HLD	81	0	2	288
TAP	81	96	3
TAP	81	192	1
TAP	81	288	7
HLD	82	0	5	288
TAP	82	96	4
TAP	82	192	6
TAP	82	288	0
TAP	83	0	1
HLD	83	0	3	96
TAP	83	96	1
HLD	83	192	4	96
TAP	83	192	5
TAP	83	288	5
TAP	84	0	3
TAP	84	0	4
TAP	84	96	3
TAP	84	96	4
THO	84	192	0	96	C	0	M1
TTP	84	192	2	B	0	M1
TTP	84	192	5	B	0	M1
TAP	85	0	0
TAP	85	48	0
TAP	85	96	6
TAP	85	144	6
TAP	85	192	3
TAP	85	240	3
TAP	85	288	5
TAP	85	336	5
TAP	86	0	2
TAP	86	48	2
TAP	86	96	3
TAP	86	144	3
TAP	86	192	1
TAP	86	240	1
TAP	86	288	6
TAP	86	336	6
TAP	87	0	0
TAP	87	24	7
TAP	87	48	0
TAP	87	72	7
TAP	87	96	0
TAP	87	120	7
TAP	87	144	0
TAP	87	168	7
TAP	87	192	1
TAP	87	216	6
TAP	87	240	1
TAP	87	264	6
TAP	87	288	1
TAP	87	312	6
TAP	87	336	1
TAP	87	360	6
BRK	88	0	0
BST	88	96	2
SUR	88	96	2	96	96	7
BST	88	96	5
SUL	88	96	5	96	96	0
TTP	89	0	0	C	1	M1
TTP	89	0	2	E	0	M1
TTP	89	0	6	E	0	M1

T_REC_TAP	339
T_REC_BRK	19
T_REC_XTP	31
T_REC_HLD	24
T_REC_XHO	2
T_REC_STR	23
T_REC_BST	2
T_REC_XST	3
T_REC_TTP	32
T_REC_THO	4
T_REC_SLD	28
T_REC_ALL	507
T_NUM_TAP	428
T_NUM_BRK	21
T_NUM_HLD	30
T_NUM_SLD	28
T_NUM_ALL	507
T_JUDGE_TAP	449
T_JUDGE_HLD	132
T_JUDGE_SLD	28
T_JUDGE_ALL	609
TTM_EACHPAIRS	97
TTM_SCR_TAP	214000
TTM_SCR_BRK	54600
TTM_SCR_HLD	30000
TTM_SCR_SLD	42000
TTM_SCR_ALL	340600
TTM_SCR_S	328350
TTM_SCR_SS	338500
TTM_RAT_ACV	10062

