VERSION	0.00.00	1.03.00
FES_MODE	0
BPM_DEF	174.000	174.000	174.000	174.000
MET_DEF	4	4
RESOLUTION	384
CLK_DEF	384
COMPATIBLE_CODE	MA2

BPM	0	0	174.000
MET	0	0	4	4

HLD	1	0	2	384
HLD	2	0	3	384
HLD	3	0	4	384
TAP	4	0	5
TAP	4	192	4
TAP	4	192	5
HLD	5	0	5	192
TAP	5	192	4
HLD	6	0	2	192
TAP	6	192	3
HLD	7	0	3	192
HLD	7	0	4	192
TAP	8	0	5
TAP	8	96	4
TAP	8	192	3
XTP	8	288	2
TAP	9	0	1
TAP	9	96	1
TAP	9	192	0
TAP	10	0	7
TAP	10	96	7
TAP	10	192	6
TAP	11	0	5
TAP	11	96	5
TAP	11	192	4
TAP	12	0	3
TAP	12	96	3
TAP	12	192	3
TAP	12	192	4
TAP	13	0	2
TAP	13	96	2
TAP	13	192	1
TAP	14	0	7
TAP	14	96	7
TAP	14	192	6
TAP	15	0	7
TAP	15	96	7
TAP	15	192	0
TAP	15	288	0
HLD	16	0	0	96
HLD	16	0	7	96
XTP	16	192	1
XTP	16	192	6
TAP	17	0	2
TAP	17	96	2
TAP	17	192	3
TAP	17	288	3
TAP	18	0	4
TAP	18	192	3
TAP	18	192	5
TAP	19	0	5
TAP	19	96	5
TAP	19	192	4
TAP	19	288	4
TAP	20	0	3
TAP	20	192	2
TAP	20	192	4
TAP	21	0	1
TAP	21	96	1
TAP	21	192	0
TAP	21	288	0
TAP	22	0	7
TAP	22	192	0
TAP	22	192	6
TAP	23	0	6
TAP	23	96	6
TAP	23	192	7
TAP	23	288	7
TAP	24	0	0
XTP	24	192	1
XTP	24	192	6
STR	25	0	0
SI_	25	0	0	96	288	4
TAP	26	192	5
TAP	26	288	5
STR	27	0	6
SI_	27	0	6	96	288	2
TAP	28	192	1
TAP	28	288	1
BST	29	0	1
SI_	29	0	1	96	288	5
TAP	30	192	6
TAP	30	288	6
STR	31	0	6
SCL	31	0	6	96	336	1
XTP	32	192	0
XTP	32	192	7
HLD	33	0	1	192
HLD	33	192	2	192
TAP	34	0	3
TAP	34	96	3
TAP	34	192	4
HLD	35	0	6	192
HLD	35	192	5	192
TAP	36	0	4
TAP	36	96	4
TAP	36	192	3
HLD	37	0	2	192
HLD	37	192	3	192
TAP	38	0	4
TAP	38	96	4
TAP	38	192	4
TAP	38	192	5
TAP	39	0	5
TAP	39	96	4
TAP	39	192	3
TAP	39	288	2
TAP	40	0	3
TAP	40	0	4
TAP	40	96	3
TAP	40	96	4
XTP	40	192	2
XTP	40	192	5
TTP	41	0	0	C	1	L1
HLD	45	0	3	768
HLD	47	0	4	384
TAP	48	0	3
XHO	48	96	2	192
XHO	48	96	5	192
TTP	49	0	3	E	0	L1
TTP	49	192	4	E	0	L1
TTP	50	0	5	E	0	L1
TTP	50	192	6	E	0	L1
TTP	51	0	7	E	0	L1
TTP	51	192	0	E	0	L1
TTP	52	0	1	E	0	L1
TTP	52	192	2	E	0	L1
TTP	53	0	3	B	0	L1
TTP	53	0	4	B	0	L1
TTP	53	192	5	B	0	L1
TTP	54	0	6	B	0	L1
TTP	54	192	7	B	0	L1
TTP	55	0	0	B	0	L1
TTP	55	192	1	B	0	L1
THO	56	0	0	192	C	0	L1
XST	57	0	7
SCL	57	0	7	96	288	4
TAP	58	192	3
STR	59	0	3
SCL	59	0	3	96	288	0
TAP	60	0	7
XTP	60	192	1
XTP	60	192	6
HLD	61	0	2	96
HLD	61	0	3	96
HLD	61	192	4	96
HLD	61	192	5	96
HLD	62	0	1	96
HLD	62	0	3	96
HLD	62	192	4	96
HLD	62	192	6	96
TAP	63	0	5
TAP	63	96	4
TAP	63	192	3
TAP	63	288	2
XTP	64	0	1
XTP	64	0	6
BRK	65	0	2
TAP	65	96	1
TAP	65	96	3
TAP	65	192	5
TAP	65	288	4
TAP	65	288	6
TAP	66	0	2
TAP	66	96	1
TAP	66	96	3
TAP	66	192	0
TAP	66	288	0
TAP	66	288	7
TAP	67	0	6
TAP	67	96	5
TAP	67	192	3
TAP	67	192	4
TAP	67	288	2
TAP	67	288	5
TAP	68	0	1
TAP	68	96	0
TAP	68	192	0
TAP	68	192	7
TAP	68	288	1
TAP	68	288	6
TAP	69	0	2
TAP	69	96	2
TAP	69	96	3
TAP	69	192	1
TAP	69	192	4
TAP	69	288	1
TAP	69	288	4
TAP	70	0	5
TAP	70	96	4
TAP	70	96	5
TAP	70	192	3
TAP	70	192	6
TAP	70	288	2
TAP	70	288	7
TAP	71	0	1
TAP	71	96	0
TAP	71	96	2
TAP	71	192	6
TAP	71	288	5
TAP	71	288	7
TAP	72	0	4
TAP	72	96	3
BRK	72	192	2
BRK	72	192	5
TAP	73	0	1
TAP	73	48	1
TAP	73	96	1
TAP	73	192	2
TAP	73	288	3
TAP	74	0	4
TAP	74	48	4
TAP	74	96	4
TAP	74	192	5
TAP	74	288	6
TAP	75	0	7
TAP	75	48	7
TAP	75	96	7
TAP	75	192	0
TAP	75	240	0
TAP	75	288	0
TAP	76	0	0
TAP	76	0	7
TAP	76	96	1
TAP	76	96	6
XTP	76	192	2
XTP	76	192	5
TAP	77	0	6
TAP	77	48	6
TAP	77	96	6
TAP	77	192	5
TAP	77	288	4
TAP	78	0	3
TAP	78	48	3
TAP	78	96	3
TAP	78	192	2
TAP	78	288	1
TAP	79	0	0
TAP	79	0	1
TAP	79	96	2
TAP	79	96	7
TAP	79	192	6
TAP	79	192	7
TAP	79	288	0
TAP	79	288	5
TAP	80	0	4
TAP	80	96	3
TAP	80	96	5
XTP	80	192	2
XTP	80	192	6
STR	81	0	5
SI_	81	0	5	96	192	2
STR	82	0	1
SI_	82	0	1	96	192	5
STR	83	0	6
SI_	83	0	6	96	192	2
HLD	84	0	0	192
BRK	84	192	7
TAP	85	0	6
TAP	85	96	4
TAP	85	96	5
TAP	85	192	3
TAP	85	240	3
TAP	85	288	3
TAP	86	0	2
TAP	86	96	0
TAP	86	96	1
TAP	86	192	7
TAP	86	240	7
TAP	86	288	7
TAP	87	0	0
TAP	87	0	6
TAP	87	48	0
TAP	87	48	6
TAP	87	96	0
TAP	87	96	6
TAP	87	192	1
TAP	87	192	7
TAP	87	240	1
TAP	87	240	7
STR	87	288	1
SI_	87	288	1	96	192	4
STR	87	288	7
SI_	87	288	7	96	192	4
TTP	89	0	0	C	1	L1

T_REC_TAP	196
T_REC_BRK	4
T_REC_XTP	17
T_REC_HLD	26
T_REC_XHO	2
T_REC_STR	9
T_REC_BST	1
T_REC_XST	1
T_REC_TTP	17
T_REC_THO	1
T_REC_SLD	11
T_REC_ALL	285
T_NUM_TAP	240
T_NUM_BRK	5
T_NUM_HLD	29
T_NUM_SLD	11
T_NUM_ALL	285
T_JUDGE_TAP	245
T_JUDGE_HLD	124
T_JUDGE_SLD	11
T_JUDGE_ALL	380
TTM_EACHPAIRS	55
TTM_SCR_TAP	120000
TTM_SCR_BRK	13000
TTM_SCR_HLD	29000
TTM_SCR_SLD	16500
TTM_SCR_ALL	178500
TTM_SCR_S	172700
TTM_SCR_SS	178000
TTM_RAT_ACV	10028

