VERSION	0.00.00	1.03.00
FES_MODE	0
BPM_DEF	174.000	174.000	174.000	174.000
MET_DEF	4	4
RESOLUTION	384
CLK_DEF	384
COMPATIBLE_CODE	MA2

BPM	0	0	174.000
MET	0	0	4	4

TAP	5	0	0
TAP	5	192	0
TAP	6	0	7
TAP	6	192	7
TAP	7	0	0
TAP	7	192	0
XHO	8	0	0	288
XHO	8	0	7	288
TAP	9	0	7
TAP	9	192	7
TAP	10	0	7
TAP	10	96	7
TAP	10	192	7
TAP	11	0	6
TAP	11	192	6
TAP	12	0	6
TAP	12	96	6
TAP	12	192	6
TAP	13	0	5
TAP	13	192	5
TAP	14	0	5
TAP	14	96	5
TAP	14	192	5
TAP	15	0	4
TAP	15	192	4
BRK	16	0	3
BRK	16	0	4
TAP	17	0	2
TAP	17	0	3
TAP	18	0	2
TAP	18	0	3
TAP	19	0	4
TAP	19	0	5
HLD	20	0	4	192
HLD	20	0	5	192
TAP	21	0	4
TAP	21	0	5
TAP	21	192	4
TAP	21	192	5
TAP	22	0	2
TAP	22	0	3
TAP	22	192	2
TAP	22	192	3
TAP	23	0	4
TAP	23	0	5
TAP	23	192	2
TAP	23	192	3
BRK	24	0	3
BRK	24	0	4
TTP	25	0	2	B	0	L1
TTP	26	0	1	B	0	L1
TTP	27	0	0	B	0	L1
TTP	28	0	7	B	0	L1
TTP	29	0	6	B	0	L1
TTP	30	0	5	B	0	L1
THO	31	0	0	384	C	1	L1
TAP	33	0	7
TAP	33	96	7
TAP	33	192	7
TAP	34	0	0
TAP	34	96	0
TAP	34	192	0
HLD	35	0	1	192
HLD	36	0	0	192
HLD	36	0	1	192
TAP	37	0	0
TAP	37	96	0
TAP	37	192	0
TAP	38	0	7
TAP	38	96	7
TAP	38	192	7
HLD	39	0	6	192
TAP	40	0	0
TAP	40	0	7
STR	41	0	0
SI_	41	0	0	96	288	3
STR	43	0	7
SI_	43	0	7	96	288	4
STR	45	0	0
SI_	45	0	0	96	288	4
STR	47	0	7
SI_	47	0	7	96	288	3
STR	49	0	1
SI_	49	0	1	96	288	4
TAP	51	0	5
TAP	51	192	5
TAP	52	0	4
TAP	52	0	5
STR	53	0	6
SI_	53	0	6	96	288	3
TAP	55	0	2
TAP	55	192	2
XTP	56	0	3
XTP	56	96	3
XTP	56	192	4
XTP	56	288	4
TAP	57	0	3
TAP	57	192	2
TAP	58	0	1
TAP	58	192	0
TAP	59	0	7
TAP	59	192	6
TAP	60	0	5
XTP	60	192	3
XTP	60	192	4
HLD	61	0	3	192
HLD	61	0	4	192
HLD	62	0	2	192
HLD	62	0	5	192
THO	63	0	0	384	C	1	L1
TAP	65	0	0
TAP	65	96	0
TAP	65	192	0
TAP	66	0	1
TAP	66	96	1
TAP	66	192	1
HLD	67	0	2	192
TAP	68	0	3
TAP	68	96	4
TAP	68	192	3
TAP	69	0	4
TAP	69	96	4
TAP	69	192	4
TAP	70	0	5
TAP	70	96	5
TAP	70	192	5
HLD	71	0	6	192
TAP	72	0	7
TAP	72	96	0
BRK	72	192	7
TAP	73	0	7
TAP	73	96	7
TAP	73	192	7
TAP	74	0	6
TAP	74	96	6
TAP	74	192	6
HLD	75	0	5	192
TAP	76	0	4
TAP	76	96	3
TAP	76	192	4
STR	77	0	3
SI_	77	0	3	96	288	0
STR	77	0	4
SI_	77	0	4	96	288	7
THO	79	0	0	384	C	1	L1
HLD	81	0	0	192
HLD	81	0	7	192
HLD	82	0	1	192
HLD	82	0	6	192
HLD	83	0	2	192
HLD	83	0	5	192
HLD	84	0	3	192
HLD	84	0	4	192
TAP	85	0	2
TAP	85	0	3
TAP	85	96	2
TAP	85	96	3
TAP	85	192	2
TAP	85	192	3
TAP	86	0	4
TAP	86	0	5
TAP	86	96	4
TAP	86	96	5
TAP	86	192	4
TAP	86	192	5
TAP	87	0	2
TAP	87	0	3
TAP	87	96	2
TAP	87	96	3
TAP	87	192	4
TAP	87	192	5
TAP	87	288	4
TAP	87	288	5
TAP	88	0	3
TAP	88	96	4
TAP	88	192	3
TAP	88	288	4
TAP	89	0	2
TAP	89	0	5

T_REC_TAP	120
T_REC_BRK	5
T_REC_XTP	6
T_REC_HLD	21
T_REC_XHO	2
T_REC_STR	8
T_REC_BST	0
T_REC_XST	0
T_REC_TTP	6
T_REC_THO	3
T_REC_SLD	8
T_REC_ALL	179
T_NUM_TAP	140
T_NUM_BRK	5
T_NUM_HLD	26
T_NUM_SLD	8
T_NUM_ALL	179
T_JUDGE_TAP	145
T_JUDGE_HLD	120
T_JUDGE_SLD	8
T_JUDGE_ALL	273
TTM_EACHPAIRS	35
TTM_SCR_TAP	70000
TTM_SCR_BRK	13000
TTM_SCR_HLD	26000
TTM_SCR_SLD	12000
TTM_SCR_ALL	121000
TTM_SCR_S	116900
TTM_SCR_SS	120500
TTM_RAT_ACV	10041

