VERSION	0.00.00	1.03.00
FES_MODE	0
BPM_DEF	210.000	210.000	210.000	210.000
MET_DEF	4	4
RESOLUTION	384
CLK_DEF	384
COMPATIBLE_CODE	MA2

BPM	0	0	210.000
MET	0	0	4	4

HLD	2	0	2	96
TAP	2	0	4
TAP	2	96	3
TAP	2	192	2
TAP	2	240	2
TAP	2	288	4
TAP	2	336	3
TAP	3	0	5
TAP	3	48	5
TAP	3	96	3
TAP	3	144	4
TAP	3	192	3
HLD	3	192	5	96
TAP	3	288	4
TAP	4	0	2
TAP	4	0	4
TAP	4	96	3
TAP	4	192	3
TAP	4	192	5
TTP	4	288	1	B	0	M1
TAP	4	288	4
TAP	5	0	2
TAP	5	0	4
TAP	5	96	3
TTP	5	96	6	B	0	M1
TAP	5	192	2
TAP	5	192	4
TAP	5	288	3
TAP	5	288	5
XHO	6	0	2	96
STR	6	0	6
SLL	6	0	6	96	288	2
TAP	6	192	1
TAP	6	288	1
HLD	7	0	0	192
TTP	7	192	0	C	0	M1
TTP	7	288	3	B	0	M1
STR	8	0	1
SLR	8	0	1	96	288	5
HLD	8	0	5	96
TAP	8	192	6
TAP	8	288	6
HLD	9	0	7	192
TTP	9	192	0	C	0	M1
TTP	9	192	4	B	0	M1
XHO	10	0	3	96
XHO	10	0	6	288
TTP	10	192	4	E	0	M1
TTP	10	288	2	E	0	M1
XHO	11	0	1	288
XHO	11	0	4	96
TTP	11	192	4	E	0	M1
TTP	11	288	6	E	0	M1
XHO	12	0	3	96
XHO	12	0	6	96
HLD	12	192	4	96
HLD	12	192	6	96
HLD	13	0	5	96
HLD	13	0	6	96
HLD	13	192	6	96
XTP	13	192	7
XTP	14	0	0
HLD	14	0	1	96
HLD	14	192	1	96
HLD	14	192	2	96
HLD	15	0	1	96
HLD	15	0	3	96
TAP	15	192	2
TAP	15	192	5
STR	15	288	0
SI_	15	288	0	864	48	4
STR	15	288	7
SI_	15	288	7	864	48	3
HLD	16	0	0	672
HLD	16	0	7	672
BRK	18	0	0
BRK	18	0	7
TAP	18	144	2
HLD	18	144	5	144
HLD	18	288	4	144
HLD	19	48	3	144
XTP	19	192	2
XTP	19	288	3
XTP	19	288	4
HLD	20	0	1	144
XTP	20	0	6
HLD	20	144	2	144
HLD	20	288	3	144
HLD	21	48	4	144
XTP	21	192	5
XTP	21	240	4
XTP	21	288	3
XTP	21	288	6
HLD	22	0	2	144
XTP	22	0	5
HLD	22	144	1	144
HLD	22	288	0	144
HLD	23	48	7	144
XTP	23	192	6
XTP	23	288	0
XTP	23	288	5
XTP	24	0	1
HLD	24	0	7	144
HLD	24	144	5	144
HLD	24	288	3	144
HLD	25	48	1	144
XTP	25	192	0
XTP	25	240	2
XTP	25	240	7
XTP	25	288	3
XTP	25	288	6
HLD	26	0	2	144
TAP	26	96	3
HLD	26	144	5	144
TAP	26	240	4
HLD	26	288	2	144
TAP	27	0	3
HLD	27	48	5	144
TAP	27	144	4
XST	27	192	3
SI_	27	192	3	96	48	7
XTP	27	288	2
HLD	28	0	1	144
TAP	28	96	0
HLD	28	144	6	144
TAP	28	240	7
HLD	28	288	1	144
TAP	29	0	0
HLD	29	48	6	144
TAP	29	144	7
XTP	29	192	1
XTP	29	240	2
XTP	29	240	5
XTP	29	288	3
XTP	29	288	4
HLD	30	0	6	144
TAP	30	96	4
HLD	30	144	1	144
TAP	30	240	3
HLD	30	288	6	144
TAP	31	0	4
HLD	31	48	1	144
TAP	31	144	3
XST	31	192	6
SI_	31	192	6	96	48	2
XTP	31	288	0
HLD	32	0	1	144
TAP	32	96	0
HLD	32	144	6	144
TAP	32	240	4
STR	32	288	2
SUL	32	288	2	96	96	5
BRK	33	0	3
XTP	33	192	0
XTP	33	192	7
XTP	33	288	3
XTP	33	288	4
BST	34	0	1
SI_	34	0	1	96	48	4
BRK	34	0	5
TAP	34	96	1
STR	34	96	7
SI_	34	96	7	96	48	3
STR	34	192	2
SI_	34	192	2	96	48	7
TAP	34	192	7
TAP	34	288	2
STR	34	288	4
SI_	34	288	4	96	48	0
STR	35	0	1
SCR	35	0	1	96	48	4
TAP	35	0	4
TAP	35	96	1
TAP	35	96	7
TAP	35	192	0
TAP	35	192	6
TAP	35	288	2
TAP	35	288	3
TAP	35	336	1
XTP	36	0	0
STR	36	0	7
SLL	36	0	7	96	48	3
STR	36	96	3
SI_	36	96	3	96	48	7
STR	36	192	7
SI_	36	192	7	96	48	3
TAP	36	288	3
XTP	37	0	0
XTP	37	0	7
TAP	37	48	5
TAP	37	72	4
TAP	37	96	5
TAP	37	120	4
TAP	37	144	5
TAP	37	168	4
XTP	37	192	7
TAP	37	240	2
TAP	37	264	3
TAP	37	288	2
TAP	37	312	3
TAP	37	336	2
TAP	37	360	3
XST	38	0	1
SI_	38	0	1	96	48	4
TAP	38	96	1
STR	38	96	5
SI_	38	96	5	96	48	1
STR	38	192	3
SI_	38	192	3	96	48	7
TAP	38	192	5
TAP	38	288	3
TAP	38	288	7
TAP	39	0	0
TAP	39	0	5
TAP	39	96	4
TAP	39	96	5
TAP	39	144	3
TAP	39	144	6
TAP	39	192	2
TAP	39	192	7
TAP	39	240	1
TAP	39	264	0
TAP	39	288	1
TAP	39	336	0
TAP	39	336	7
XTP	40	0	1
XTP	40	0	6
TAP	40	48	5
TAP	40	72	4
TAP	40	96	6
TAP	40	144	2
TAP	40	168	3
TAP	40	192	1
TAP	40	240	5
TAP	40	264	4
TAP	40	288	6
TAP	40	336	2
TAP	40	360	3
STR	41	0	2
SCL	41	0	2	96	48	7
TAP	41	96	6
STR	41	144	6
SCL	41	144	6	96	48	3
TAP	41	240	0
BRK	41	288	0
BRK	42	0	2
BST	42	0	6
SI_	42	0	6	96	48	3
STR	42	96	0
SI_	42	96	0	96	48	4
TAP	42	96	6
TAP	42	192	0
STR	42	192	5
SI_	42	192	5	96	48	0
STR	42	288	3
SI_	42	288	3	96	48	7
TAP	42	288	5
TAP	43	0	3
STR	43	0	6
SCL	43	0	6	96	48	3
TAP	43	96	0
TAP	43	96	6
TAP	43	192	0
TAP	43	192	1
TAP	43	240	2
TAP	43	288	3
TAP	43	288	5
TAP	43	336	6
STR	44	0	0
SLR	44	0	0	96	48	4
XTP	44	0	7
STR	44	96	4
SI_	44	96	4	96	48	0
STR	44	192	0
SI_	44	192	0	96	48	4
TAP	44	288	4
XTP	45	0	0
XTP	45	0	7
HLD	45	48	2	0
HLD	45	72	3	0
HLD	45	96	2	0
HLD	45	120	3	0
HLD	45	144	2	0
HLD	45	168	3	0
XHO	45	192	0	0
HLD	45	240	5	0
HLD	45	264	4	0
HLD	45	288	5	0
HLD	45	312	4	0
HLD	45	336	5	0
HLD	45	360	4	0
XST	46	0	7
SF_	46	0	7	96	48	3
XTP	46	96	7
XTP	46	192	1
XTP	46	192	5
XST	46	288	4
SI_	46	288	4	96	48	2
XTP	46	288	5
XST	47	0	6
SI_	47	0	6	96	48	4
XTP	47	96	1
XTP	47	192	0
XTP	47	192	1
TAP	47	240	2
TAP	47	288	3
TAP	47	288	4
TAP	47	336	5
STR	48	0	4
SI_	48	0	4	96	48	0
STR	48	0	6
SI_	48	0	6	96	48	4
STR	48	192	1
SI_	48	192	1	96	48	3
STR	48	192	3
SI_	48	192	3	96	48	7
XTP	49	0	4
XTP	49	0	6
XTP	49	96	2
XTP	49	96	3
BRK	49	192	0
BRK	49	192	7
XTP	49	240	1
XTP	49	240	7
XTP	49	288	2
XTP	49	288	7
XTP	49	336	3
XTP	49	336	7
TAP	50	0	4
STR	50	0	6
SI_	50	0	6	96	48	4
TAP	50	96	3
STR	50	96	6
SI_	50	96	6	96	48	0
TAP	50	192	2
STR	50	192	6
SI_	50	192	6	96	48	2
STR	50	288	1
SI_	50	288	1	96	48	5
TAP	50	288	6
TAP	51	0	0
STR	51	0	1
SI_	51	0	1	96	48	3
TAP	51	96	1
TAP	51	96	7
XTP	51	192	4
XTP	51	192	5
XTP	51	240	6
XTP	51	288	5
XTP	51	288	7
XTP	51	336	0
TAP	52	0	1
STR	52	0	3
SI_	52	0	3	96	48	7
TAP	52	96	2
TAP	52	96	3
STR	52	192	4
SI_	52	192	4	96	48	0
TAP	52	192	6
TAP	52	288	4
TAP	52	288	5
XST	53	0	1
SI_	53	0	1	96	48	4
XTP	53	0	3
TAP	53	96	5
TAP	53	144	6
TAP	53	192	7
XTP	53	288	0
XTP	53	288	6
STR	54	0	1
SI_	54	0	1	96	48	3
TAP	54	0	3
STR	54	96	1
SI_	54	96	1	96	48	7
TAP	54	96	4
STR	54	192	1
SI_	54	192	1	96	48	5
TAP	54	192	5
TAP	54	288	1
STR	54	288	6
SI_	54	288	6	96	48	2
STR	55	0	6
SI_	55	0	6	96	48	4
TAP	55	0	7
TAP	55	96	0
TAP	55	96	6
XTP	55	192	1
XTP	55	192	3
XTP	55	240	2
XTP	55	288	3
XTP	55	288	4
XTP	55	336	5
XST	56	0	4
SV_	56	0	4	96	48	7
XST	56	0	6
SI_	56	0	6	96	48	4
TAP	56	96	4
TAP	56	96	6
XST	56	192	1
SI_	56	192	1	96	48	3
XST	56	192	3
SV_	56	192	3	96	48	0
TAP	56	288	1
TAP	56	288	3
XTP	57	0	4
XST	57	0	6
SI_	57	0	6	96	48	2
TAP	57	96	0
TAP	57	96	6
TAP	57	192	0
TAP	57	216	4
TAP	57	240	1
TAP	57	264	5
TAP	57	288	2
TAP	57	312	6
TAP	57	336	3
TAP	57	360	7
BRK	58	0	0
BST	58	0	4
SCR	58	0	4	96	480	4
TTP	60	0	1	B	0	M1
TTP	60	0	2	B	0	M1
TTP	60	96	5	B	0	M1
TTP	60	96	6	B	0	M1
TTP	60	192	4	B	0	M1
TTP	60	240	3	B	0	M1
TTP	60	288	3	E	0	M1
TTP	61	0	2	E	0	M1
TTP	61	0	6	E	0	M1
TTP	61	192	0	E	0	M1
TTP	61	288	4	E	0	M1
THO	62	0	0	384	C	0	M1
TTP	62	144	0	B	0	M1
TTP	62	288	7	B	0	M1
TTP	63	0	0	E	0	M1
TTP	63	192	5	E	0	M1
TTP	63	240	4	B	0	M1
TTP	63	288	3	B	0	M1
TTP	64	0	1	B	0	M1
TTP	64	0	2	B	0	M1
TTP	64	192	3	E	0	M1
TTP	64	240	3	B	0	M1
TTP	64	288	4	B	0	M1
TTP	65	0	5	B	0	M1
TTP	65	0	6	B	0	M1
TTP	65	144	4	E	0	M1
TTP	65	288	2	E	0	M1
TTP	66	0	0	B	0	M1
TTP	66	0	7	B	0	M1
TTP	66	144	4	E	0	M1
TTP	66	288	6	E	0	M1
TTP	67	0	0	E	0	M1
TTP	67	96	0	C	0	M1
TTP	67	192	4	E	0	M1
BRK	68	0	3
BRK	68	0	4
TAP	68	96	2
TAP	68	96	5
TAP	68	192	4
TAP	68	240	3
STR	68	288	2
SCR	68	288	2	96	192	5
TAP	69	0	5
TAP	69	192	6
TAP	69	288	5
TAP	70	0	3
TAP	70	0	4
TAP	70	144	2
TAP	70	192	2
TAP	70	288	3
TAP	70	288	5
TAP	71	0	2
HLD	71	0	4	192
TAP	71	192	3
TAP	71	240	4
TAP	71	288	3
HLD	72	0	1	96
HLD	72	0	3	96
TAP	72	192	4
TAP	72	240	3
TAP	72	288	4
HLD	73	0	4	96
HLD	73	0	6	96
TAP	73	192	3
TAP	73	240	4
TAP	73	288	3
TAP	74	0	1
STR	74	0	3
SI_	74	0	3	96	192	7
STR	75	0	4
SI_	75	0	4	96	192	0
TAP	75	0	6
HLD	76	0	1	288
STR	76	0	3
SCR	76	0	3	96	192	7
STR	77	0	4
SCL	77	0	4	96	192	0
HLD	77	0	6	288
BRK	78	0	1
BRK	78	0	7
TAP	78	96	0
HLD	78	144	0	96
TAP	78	240	2
HLD	78	288	2	96
TAP	79	0	4
HLD	79	48	4	96
TAP	79	144	5
TAP	79	192	3
TAP	79	192	6
TAP	79	288	1
TAP	79	288	4
TAP	80	0	3
HLD	80	0	7	96
TAP	80	96	5
HLD	80	144	5	96
TAP	80	240	3
HLD	80	288	3	96
TAP	81	0	1
HLD	81	48	1	96
TAP	81	144	0
TAP	81	192	2
TAP	81	192	7
TAP	81	240	3
TAP	81	240	6
TAP	81	288	4
TAP	81	288	5
TAP	82	0	3
STR	82	0	6
SI_	82	0	6	96	48	3
STR	82	96	1
SI_	82	96	1	96	48	4
TAP	82	96	6
TAP	82	192	1
STR	82	192	7
SI_	82	192	7	96	48	3
TAP	82	288	0
TAP	82	288	7
TAP	83	0	1
TAP	83	0	4
TAP	83	48	1
TAP	83	48	4
TAP	83	96	2
TAP	83	96	5
TAP	83	144	2
TAP	83	144	5
TAP	83	192	3
TAP	83	204	4
TAP	83	216	5
TAP	83	228	6
TAP	83	240	7
TAP	83	252	0
TAP	83	264	1
TAP	83	276	2
STR	83	288	3
SI_	83	288	3	768	48	7
STR	83	300	4
SI_	83	300	4	756	48	0
TAP	83	312	5
TAP	83	324	6
TAP	83	336	7
TAP	83	348	0
TAP	83	360	1
TAP	83	372	2
XHO	84	0	3	576
XHO	84	0	4	576
BRK	85	288	3
BRK	85	288	4
XTP	86	0	1
XTP	86	0	6
XTP	86	96	5
TAP	86	120	4
TAP	86	144	5
XTP	86	192	6
TAP	86	240	0
TAP	86	264	7
XTP	86	288	0
TAP	86	336	1
XTP	87	0	2
XTP	87	0	4
TAP	87	48	3
XTP	87	96	5
TAP	87	120	4
TAP	87	144	5
TAP	87	192	6
XTP	87	192	7
TAP	87	240	0
TAP	87	288	1
XTP	87	288	3
TAP	87	336	2
XTP	87	336	4
TAP	88	0	3
XTP	88	0	5
TAP	88	48	6
TAP	88	72	7
XTP	88	96	6
TAP	88	144	0
XTP	88	192	2
TAP	88	216	3
TAP	88	240	2
XTP	88	288	4
TAP	88	336	0
XTP	88	336	7
XTP	88	360	1
TAP	88	360	6
TAP	89	0	2
XTP	89	0	5
TAP	89	96	0
XTP	89	96	1
TAP	89	144	2
XTP	89	144	7
TAP	89	240	2
XTP	89	240	3
TAP	89	288	3
XTP	89	288	4
TAP	89	336	4
XTP	89	336	5
BRK	90	0	3
BRK	90	0	6
TAP	90	48	5
TAP	90	72	4
XTP	90	96	5
TAP	90	144	3
XTP	90	192	1
TAP	90	216	0
TAP	90	240	1
XTP	90	288	7
XTP	90	336	6
TAP	91	0	4
XTP	91	0	5
TAP	91	48	2
TAP	91	72	3
XTP	91	96	2
XTP	91	144	1
TAP	91	192	7
TAP	91	216	0
XTP	91	240	7
TAP	91	288	2
TAP	91	288	6
XTP	91	336	5
XST	92	0	1
SI_	92	0	1	96	48	5
TAP	92	0	4
TAP	92	48	1
XTP	92	48	4
XTP	92	96	1
TAP	92	96	4
TAP	92	192	3
XTP	92	192	7
XTP	92	240	4
TAP	92	240	6
XTP	92	336	0
TAP	92	336	7
TAP	93	0	1
XTP	93	0	3
TAP	93	48	2
XTP	93	48	4
XTP	93	96	3
TAP	93	96	5
TAP	93	144	4
XTP	93	144	6
XTP	93	192	0
XTP	93	216	7
XTP	93	240	1
XTP	93	264	6
XTP	93	288	2
XTP	93	312	5
XTP	93	336	3
XTP	93	360	4
BRK	94	0	1
BRK	94	0	6
XTP	94	96	2
TAP	94	120	3
TAP	94	144	2
XTP	94	192	1
TAP	94	240	7
TAP	94	264	0
XTP	94	288	7
TAP	94	336	6
XTP	95	0	3
XTP	95	0	5
TAP	95	48	4
XTP	95	96	2
TAP	95	120	3
TAP	95	144	2
XTP	95	192	0
TAP	95	192	1
TAP	95	240	7
TAP	95	288	4
XTP	95	288	6
XTP	95	336	3
TAP	95	336	5
TAP	96	0	2
XTP	96	0	4
TAP	96	48	1
TAP	96	72	0
XTP	96	96	1
TAP	96	144	7
XTP	96	192	5
TAP	96	216	4
TAP	96	240	5
XTP	96	288	2
XTP	96	312	3
XTP	96	336	2
XTP	96	360	3
XST	97	0	1
SI_	97	0	1	96	48	4
TAP	97	0	4
TAP	97	96	1
XST	97	96	5
SI_	97	96	5	96	48	0
TAP	97	192	5
XST	97	192	7
SI_	97	192	7	96	48	3
XTP	97	288	6
TAP	97	288	7
TAP	97	336	5
BRK	98	0	1
BRK	98	0	4
TAP	98	48	2
TAP	98	72	3
XTP	98	96	2
TAP	98	144	4
XTP	98	192	6
TAP	98	216	7
TAP	98	240	6
XTP	98	288	0
TAP	98	288	1
TAP	98	336	2
BRK	99	0	3
BRK	99	0	4
TAP	99	48	5
TAP	99	72	4
XTP	99	96	5
TAP	99	144	6
XTP	99	192	0
TAP	99	216	7
TAP	99	240	0
TAP	99	288	2
XTP	99	288	3
XTP	99	336	2
TAP	99	336	3
BRK	100	0	1
BRK	100	0	4
XTP	100	96	4
TAP	100	96	5
TAP	100	144	3
TAP	100	144	6
TAP	100	240	2
TAP	100	240	3
XTP	100	288	1
XTP	100	288	4
XTP	100	336	2
XTP	100	336	5
XHO	101	0	3	48
XHO	101	0	6	48
XHO	101	72	1	48
XHO	101	72	4	48
XTP	101	144	0
XTP	101	144	7
XTP	101	240	3
XTP	101	240	4
XTP	101	288	3
XTP	101	288	4
BRK	101	336	1
BRK	101	336	6
TAP	102	48	2
TAP	102	72	3
TAP	102	96	2
TAP	102	144	1
TAP	102	144	4
TAP	102	192	5
TAP	102	216	4
TAP	102	240	6
TAP	102	264	4
TAP	102	288	5
TAP	102	336	2
TAP	103	0	0
TAP	103	0	1
TAP	103	48	6
TAP	103	72	7
TAP	103	96	5
TAP	103	144	4
TAP	103	144	6
TAP	103	192	2
TAP	103	216	3
TAP	103	240	1
TAP	103	264	3
TAP	103	288	2
TAP	103	336	5
TAP	104	0	0
STR	104	0	6
SCL	104	0	6	96	24	4
TAP	104	48	1
TAP	104	72	2
STR	104	96	6
SCR	104	96	6	96	24	0
TAP	104	144	1
TAP	104	168	2
STR	104	192	6
SI_	104	192	6	96	24	2
TAP	104	240	1
TAP	104	264	2
TAP	104	288	6
TAP	104	336	0
BRK	105	0	0
BRK	105	0	4
TAP	105	96	3
TAP	105	96	7
TAP	105	144	3
TAP	105	144	7
TAP	105	192	6
TAP	105	208	5
TAP	105	224	4
TAP	105	240	1
TAP	105	256	2
TAP	105	272	3
BRK	105	288	7
XTP	106	0	2
TAP	106	0	6
TAP	106	48	5
TAP	106	72	4
TAP	106	96	5
TAP	106	144	3
TAP	106	144	4
STR	106	192	2
SI_	106	192	2	96	48	0
TAP	106	216	3
TAP	106	240	2
TAP	106	264	3
TAP	106	288	2
TAP	106	336	7
XTP	107	0	1
XTP	107	0	5
TAP	107	48	2
TAP	107	72	3
TAP	107	96	2
TAP	107	144	3
TAP	107	144	4
STR	107	192	5
SI_	107	192	5	96	48	7
TAP	107	216	4
TAP	107	240	5
TAP	107	264	4
TAP	107	288	5
TAP	107	336	1
TAP	108	0	0
TAP	108	0	2
TAP	108	48	0
TAP	108	48	2
TAP	108	96	1
TAP	108	96	3
TAP	108	144	2
TAP	108	144	4
TAP	108	192	3
TAP	108	192	5
TAP	108	240	4
TAP	108	240	6
TAP	108	288	0
TAP	108	312	7
TAP	108	336	0
TAP	108	360	7
BST	109	0	1
SI_	109	0	1	96	48	4
BST	109	0	6
SI_	109	0	6	96	48	3
TAP	109	96	1
TAP	109	96	6
XTP	109	192	0
XTP	109	192	7
TAP	109	204	1
XTP	109	216	2
TAP	109	228	3
XTP	109	240	4
TAP	109	252	5
XTP	109	264	6
TAP	109	276	7
BRK	109	288	0
BRK	109	288	4
XTP	110	0	2
XTP	110	0	7
TAP	110	48	5
TAP	110	72	4
TAP	110	96	5
TAP	110	144	3
TAP	110	144	6
TAP	110	192	2
TAP	110	216	3
TAP	110	240	1
TAP	110	264	3
TAP	110	288	2
TAP	110	336	5
TAP	111	0	6
TAP	111	0	7
TAP	111	48	1
TAP	111	72	0
TAP	111	96	2
TAP	111	144	1
TAP	111	144	3
TAP	111	192	5
TAP	111	216	4
TAP	111	240	6
TAP	111	264	4
TAP	111	288	5
TAP	111	336	2
STR	112	0	1
SCR	112	0	1	96	24	3
TAP	112	0	7
TAP	112	48	6
TAP	112	72	5
STR	112	96	1
SCL	112	96	1	96	24	7
TAP	112	144	6
TAP	112	168	5
STR	112	192	1
SI_	112	192	1	96	24	5
TAP	112	240	6
TAP	112	264	5
TAP	112	288	1
TAP	112	336	7
XST	113	0	2
SI_	113	0	2	96	48	7
XST	113	0	6
SI_	113	0	6	96	48	3
XTP	113	96	2
XTP	113	96	6
BRK	113	192	1
BRK	113	192	5
TAP	113	288	1
TAP	113	304	2
TAP	113	320	3
TAP	113	336	6
TAP	113	352	5
TAP	113	368	4
BRK	114	0	0
TAP	114	48	2
TAP	114	72	3
TAP	114	96	2
TAP	114	144	1
TAP	114	144	4
STR	114	192	5
SCL	114	192	5	96	48	2
TAP	114	216	4
TAP	114	240	6
TAP	114	264	4
TAP	114	288	5
TAP	114	336	1
XTP	115	0	0
XTP	115	0	7
TAP	115	48	5
TAP	115	72	4
TAP	115	96	5
TAP	115	144	3
TAP	115	144	6
STR	115	192	2
SCR	115	192	2	96	48	5
TAP	115	216	3
TAP	115	240	1
TAP	115	264	3
TAP	115	288	2
TAP	115	336	6
XHO	116	0	0	96
XTP	116	0	1
TAP	116	16	2
TAP	116	32	3
TAP	116	48	4
TAP	116	64	5
XTP	116	144	6
XHO	116	144	7	96
TAP	116	160	5
TAP	116	176	4
TAP	116	192	3
TAP	116	208	2
XTP	116	288	0
TAP	116	304	4
TAP	116	320	0
TAP	116	336	4
TAP	116	352	0
TAP	116	368	4
HLD	117	0	0	96
HLD	117	144	3	96
HLD	117	144	5	96
TAP	117	288	0
STR	117	288	7
SF_	117	288	7	96	48	3
BST	118	0	7
SCL	118	0	7	96	672	7
SCR	118	0	7	96	672	7
TTP	118	2	0	C	1	M1

T_REC_TAP	474
T_REC_BRK	35
T_REC_XTP	174
T_REC_HLD	75
T_REC_XHO	16
T_REC_STR	60
T_REC_BST	6
T_REC_XST	18
T_REC_TTP	44
T_REC_THO	1
T_REC_SLD	85
T_REC_ALL	988
T_NUM_TAP	770
T_NUM_BRK	41
T_NUM_HLD	92
T_NUM_SLD	85
T_NUM_ALL	988
T_JUDGE_TAP	811
T_JUDGE_HLD	268
T_JUDGE_SLD	85
T_JUDGE_ALL	1164
TTM_EACHPAIRS	223
TTM_SCR_TAP	385000
TTM_SCR_BRK	106600
TTM_SCR_HLD	92000
TTM_SCR_SLD	127500
TTM_SCR_ALL	711100
TTM_SCR_S	685800
TTM_SCR_SS	707000
TTM_RAT_ACV	10057

