VERSION	0.00.00	1.03.00
FES_MODE	0
BPM_DEF	210.000	210.000	210.000	210.000
MET_DEF	4	4
RESOLUTION	384
CLK_DEF	384
COMPATIBLE_CODE	MA2

BPM	0	0	210.000
MET	0	0	4	4

HLD	2	0	3	384
TAP	2	192	4
TAP	2	288	4
HLD	3	0	5	384
TAP	3	192	3
TAP	3	288	3
TAP	4	0	2
TAP	4	192	2
TAP	4	288	2
TAP	4	288	3
TAP	5	0	4
TAP	5	96	3
TAP	5	96	4
TAP	5	192	5
TAP	5	288	4
TAP	5	288	5
HLD	6	0	3	576
BRK	6	0	6
TAP	6	96	6
TAP	6	192	5
TAP	6	288	5
TAP	7	0	4
TTP	7	192	5	B	0	M1
TTP	7	192	6	B	0	M1
BRK	8	0	1
XHO	8	0	4	576
TAP	8	96	1
TAP	8	192	2
TAP	8	288	2
TAP	9	0	3
TTP	9	192	1	B	0	M1
TTP	9	192	2	B	0	M1
XST	10	0	0
SCR	10	0	0	96	120	3
XST	10	0	4
SCR	10	0	4	96	120	7
XST	11	0	3
SCL	11	0	3	96	120	0
XST	11	0	7
SCL	11	0	7	96	120	4
HLD	12	0	1	576
STR	12	0	6
SI_	12	0	6	96	96	4
STR	13	0	3
SI_	13	0	3	96	96	7
HLD	14	0	2	1176
STR	14	0	5
SI_	14	0	5	96	96	7
STR	15	0	0
SI_	15	0	0	96	96	4
THO	16	0	0	408	C	0	M1
BRK	18	0	0
BRK	18	0	7
TAP	18	96	2
HLD	18	144	2	96
TAP	18	240	3
HLD	18	288	3	96
TAP	19	0	1
HLD	19	48	1	96
TAP	19	144	3
TAP	19	192	2
TAP	19	192	4
TAP	19	288	3
TAP	19	288	5
TAP	20	0	4
TAP	20	0	6
TAP	20	96	5
HLD	20	144	5	96
TAP	20	240	4
HLD	20	288	4	96
TAP	21	0	6
HLD	21	48	6	96
TAP	21	144	4
TAP	21	192	3
TAP	21	192	5
TAP	21	288	2
TAP	21	288	4
TAP	22	0	1
TAP	22	0	3
TAP	22	96	0
HLD	22	144	0	96
TAP	22	240	3
HLD	22	288	3	96
TAP	23	0	1
HLD	23	48	1	96
TAP	23	144	3
TAP	23	192	2
TAP	23	192	4
TAP	23	288	3
TAP	23	288	5
TAP	24	0	4
TAP	24	0	6
TAP	24	96	7
HLD	24	144	7	96
TAP	24	240	4
HLD	24	288	4	96
TAP	25	0	6
HLD	25	48	6	96
TAP	25	144	4
TAP	25	192	3
TAP	25	192	5
TAP	25	288	2
TAP	25	288	6
BST	26	0	1
SI_	26	0	1	96	48	4
STR	26	144	5
SI_	26	144	5	96	48	0
STR	26	288	1
SI_	26	288	1	96	48	4
STR	27	48	5
SI_	27	48	5	96	48	0
XTP	27	192	1
XTP	27	288	2
XTP	27	288	7
BST	28	0	6
SI_	28	0	6	96	48	3
STR	28	144	2
SI_	28	144	2	96	48	7
STR	28	288	6
SI_	28	288	6	96	48	3
STR	29	48	2
SI_	29	48	2	96	48	7
XTP	29	192	6
XTP	29	240	6
XTP	29	288	0
XTP	29	288	5
BRK	30	0	2
BST	30	0	3
SI_	30	0	3	96	48	6
STR	30	144	0
SI_	30	144	0	96	48	4
STR	30	288	5
SI_	30	288	5	96	48	1
STR	31	48	0
SI_	31	48	0	96	48	3
XTP	31	192	6
XTP	31	288	3
XTP	31	288	5
STR	32	0	1
SI_	32	0	1	96	48	5
TAP	32	0	4
STR	32	144	7
SSR	32	144	7	96	144	3
XTP	32	288	2
XTP	33	0	1
TAP	33	192	2
TAP	33	288	3
TAP	34	0	4
TAP	34	0	5
TAP	34	96	4
TAP	34	96	5
TAP	34	192	2
TAP	34	192	3
TAP	34	288	2
TAP	34	288	3
TAP	35	0	4
TAP	35	0	5
TAP	35	96	4
TAP	35	96	5
TAP	35	192	3
TAP	35	192	6
TAP	35	288	2
TAP	35	336	2
TAP	36	0	2
TAP	36	0	3
TAP	36	96	2
TAP	36	96	3
TAP	36	192	4
TAP	36	192	5
TAP	36	288	4
TAP	36	288	5
TAP	37	0	2
TAP	37	0	3
TAP	37	96	1
TAP	37	96	4
TAP	37	192	3
TAP	37	192	6
TAP	37	240	3
TAP	37	240	6
TAP	37	336	1
TAP	37	336	4
TAP	38	0	1
TAP	38	0	4
TAP	38	96	2
TAP	38	96	5
TAP	38	192	3
TAP	38	192	6
TAP	38	288	3
TAP	38	288	6
TAP	39	0	1
TAP	39	0	4
TAP	39	96	1
TAP	39	96	4
XTP	39	192	3
XTP	39	240	3
XTP	39	288	4
XTP	39	336	4
HLD	40	0	2	96
HLD	40	96	1	96
HLD	40	192	0	96
HLD	40	288	7	96
HLD	41	0	6	96
HLD	41	96	5	96
TAP	41	192	4
TAP	41	240	4
TAP	41	288	3
TAP	41	288	5
TAP	42	0	2
TAP	42	48	2
TAP	42	96	1
TAP	42	96	3
TTP	42	192	6	B	0	M1
TTP	42	192	7	B	0	M1
TTP	42	288	4	B	0	M1
TTP	42	288	5	E	0	M1
TTP	43	0	0	B	0	M1
TTP	43	0	1	B	0	M1
TTP	43	96	3	B	0	M1
TTP	43	96	3	E	0	M1
TTP	43	192	0	E	0	M1
TTP	43	288	2	B	0	M1
TTP	43	288	5	B	0	M1
XTP	44	0	0
XTP	44	48	0
XTP	44	96	1
XTP	44	96	7
TAP	44	192	5
TAP	44	240	5
TAP	44	288	4
TAP	44	336	6
TAP	45	0	2
TAP	45	48	2
TAP	45	96	3
TAP	45	144	1
TAP	45	192	7
TAP	45	240	7
TAP	45	288	0
TAP	45	288	6
TAP	46	0	4
TAP	46	48	4
TAP	46	96	3
TAP	46	96	5
TAP	46	192	1
TAP	46	192	7
TTP	46	288	2	B	0	M1
TTP	46	288	4	B	0	M1
TAP	47	0	0
TAP	47	0	6
TTP	47	96	3	B	0	M1
TTP	47	96	5	B	0	M1
XTP	47	192	2
XTP	47	240	2
XTP	47	288	4
XTP	47	336	4
STR	48	0	0
SI_	48	0	0	96	48	4
TAP	48	0	6
TAP	48	192	1
STR	48	192	7
SI_	48	192	7	96	48	3
TAP	49	0	2
TAP	49	96	2
TAP	49	192	1
TAP	49	240	0
TAP	49	288	7
TAP	49	336	6
HLD	50	0	3	48
HLD	50	0	5	48
HLD	50	96	3	48
HLD	50	96	5	48
HLD	50	192	1	48
HLD	50	192	7	48
HLD	50	288	1	48
HLD	50	288	7	48
HLD	51	0	3	48
HLD	51	0	5	48
TAP	51	96	3
TAP	51	96	5
TTP	51	192	6	B	0	M1
TTP	51	192	7	E	0	M1
TTP	51	288	1	B	0	M1
TTP	51	288	1	E	0	M1
XHO	52	0	2	48
XHO	52	0	4	48
HLD	52	96	2	48
HLD	52	96	4	48
HLD	52	192	0	48
HLD	52	192	6	48
HLD	52	288	0	48
HLD	52	288	6	48
HLD	53	0	2	96
TTP	53	96	3	B	0	M1
TTP	53	96	4	B	0	M1
HLD	53	192	6	96
TTP	53	288	0	B	0	M1
TTP	53	288	7	B	0	M1
XHO	54	0	2	48
XHO	54	0	4	48
HLD	54	96	2	48
HLD	54	96	4	48
HLD	54	192	0	48
HLD	54	192	6	48
HLD	54	288	0	48
HLD	54	288	6	48
HLD	55	0	2	48
HLD	55	0	4	48
TAP	55	96	2
TAP	55	96	4
TTP	55	192	1	B	0	M1
TTP	55	192	1	E	0	M1
TTP	55	288	6	B	0	M1
TTP	55	288	7	E	0	M1
XHO	56	0	4	48
XHO	56	0	5	48
TAP	56	96	3
TAP	56	96	6
HLD	56	192	0	48
HLD	56	192	1	48
TAP	56	288	2
TAP	56	288	7
HLD	57	0	3	48
HLD	57	0	4	48
TAP	57	96	2
TAP	57	96	5
TAP	57	192	0
TAP	57	192	7
TAP	57	240	0
TAP	57	240	7
TAP	57	288	1
TAP	57	288	6
TAP	57	336	1
TAP	57	336	6
BST	58	0	2
SXR	58	0	2	96	384	3
BST	58	0	5
SXL	58	0	5	96	384	4
STR	60	0	4
SCR	60	0	4	96	864	3
TAP	63	0	5
TAP	63	192	4
STR	64	0	3
SCL	64	0	3	96	864	4
TAP	67	0	3
TAP	67	0	4
XTP	67	192	2
XTP	67	192	5
TTP	68	0	2	E	0	M1
TTP	68	0	3	E	0	M1
TTP	69	0	5	E	0	M1
TTP	69	0	6	E	0	M1
TTP	70	0	0	B	0	M1
TTP	70	0	7	B	0	M1
TTP	71	0	0	C	0	M1
TTP	72	0	3	B	0	M1
TTP	72	0	3	E	0	M1
TTP	72	0	4	B	0	M1
TTP	72	0	5	E	0	M1
TTP	73	0	0	B	0	M1
TTP	73	0	1	E	0	M1
TTP	73	0	7	B	0	M1
TTP	73	0	7	E	0	M1
BST	74	0	3
SF_	74	0	3	96	144	7
XHO	75	0	0	192
XHO	75	0	6	192
BST	76	0	4
SF_	76	0	4	96	144	0
XHO	77	0	1	192
XHO	77	0	7	192
HLD	78	0	0	144
TAP	78	96	2
HLD	78	144	2	96
TAP	78	240	4
HLD	78	288	4	96
TAP	79	0	6
HLD	79	48	6	96
TAP	79	144	0
TAP	79	192	1
TAP	79	192	7
TAP	79	288	2
TAP	79	288	6
HLD	80	0	7	144
TAP	80	96	5
HLD	80	144	5	96
TAP	80	240	3
HLD	80	288	3	96
TAP	81	0	1
HLD	81	48	1	96
TAP	81	144	7
TAP	81	192	0
TAP	81	192	6
TAP	81	288	1
TAP	81	288	5
XTP	82	0	0
TAP	82	96	1
TAP	82	192	2
TAP	82	288	3
XTP	83	0	4
TAP	83	48	5
TAP	83	96	6
TAP	83	144	7
XTP	83	192	0
XTP	83	216	1
XTP	83	240	2
XTP	83	264	3
XTP	83	288	4
XTP	83	312	5
XTP	83	336	6
XTP	83	360	7
XHO	84	0	0	576
BRK	85	288	1
BRK	85	288	5
HLD	86	0	6	96
XTP	86	0	7
TAP	86	96	4
TAP	86	144	3
TAP	86	144	5
TAP	86	240	2
TAP	86	288	1
TAP	86	288	3
XTP	87	0	0
HLD	87	0	1	96
TAP	87	96	3
TAP	87	144	2
TAP	87	144	4
TAP	87	240	5
TAP	87	288	4
TAP	87	288	6
HLD	88	0	6	96
XTP	88	0	7
TAP	88	96	4
TAP	88	144	3
TAP	88	144	5
TAP	88	240	2
TAP	88	288	1
TAP	88	288	3
TAP	89	0	0
XTP	89	0	7
TAP	89	96	2
TAP	89	96	3
TAP	89	144	0
TAP	89	144	4
TAP	89	240	4
TAP	89	240	5
TAP	89	288	3
TAP	89	288	7
XTP	90	0	0
HLD	90	0	1	96
TAP	90	96	3
TAP	90	144	2
TAP	90	144	4
TAP	90	240	5
TAP	90	288	4
TAP	90	288	6
HLD	91	0	6	96
XTP	91	0	7
TAP	91	96	4
TAP	91	144	3
TAP	91	144	5
TAP	91	240	2
TAP	91	288	1
TAP	91	288	3
XTP	92	0	0
HLD	92	0	1	96
TAP	92	96	3
TAP	92	144	2
TAP	92	144	4
TAP	92	240	5
TAP	92	288	4
TAP	92	288	6
TAP	93	0	0
TAP	93	0	7
TAP	93	48	0
TAP	93	48	7
TAP	93	96	1
STR	93	96	6
SI_	93	96	6	96	48	3
STR	93	192	7
SI_	93	192	7	96	48	2
BRK	93	288	6
XTP	94	0	0
XTP	94	0	1
XTP	94	48	0
XTP	94	48	1
XHO	94	96	2	96
XTP	94	96	7
TAP	94	192	3
TAP	94	288	1
TAP	94	288	4
TAP	95	0	4
TAP	95	0	5
TAP	95	48	4
TAP	95	48	5
TAP	95	96	3
HLD	95	96	6	96
TAP	95	192	7
TAP	95	288	0
TAP	95	288	5
TAP	96	0	2
TAP	96	0	3
TAP	96	48	2
TAP	96	48	3
HLD	96	96	1	96
TAP	96	96	4
TAP	96	192	0
TAP	96	288	2
TAP	96	288	7
TAP	97	0	0
TAP	97	0	5
TAP	97	48	6
TAP	97	96	7
TAP	97	144	6
TAP	97	240	0
TAP	97	240	4
TAP	97	288	0
TAP	97	288	4
TAP	98	0	2
TAP	98	0	3
TAP	98	48	2
TAP	98	48	3
HLD	98	96	1	96
TAP	98	96	4
TAP	98	192	0
TAP	98	288	2
TAP	98	288	7
TAP	99	0	4
TAP	99	0	5
TAP	99	48	4
TAP	99	48	5
TAP	99	96	3
HLD	99	96	6	96
TAP	99	192	7
TAP	99	288	0
TAP	99	288	5
TAP	100	0	2
TAP	100	48	3
TAP	100	96	1
TAP	100	144	5
TAP	100	192	4
TAP	100	240	6
TAP	100	288	2
TAP	100	336	3
XHO	101	0	1	48
XHO	101	0	4	48
XHO	101	72	1	48
XHO	101	72	4	48
XTP	101	144	1
XTP	101	144	4
TAP	101	240	3
TAP	101	240	6
TAP	101	288	3
TAP	101	288	6
STR	102	0	5
SI_	102	0	5	96	48	2
TAP	102	48	5
STR	102	96	1
SI_	102	96	1	96	48	6
TAP	102	144	1
TAP	102	192	4
XTP	102	288	0
XTP	102	288	5
STR	103	0	4
SI_	103	0	4	96	48	7
TAP	103	48	4
STR	103	96	0
SI_	103	96	0	96	48	3
TAP	103	144	0
TAP	103	192	6
XTP	103	288	2
XTP	103	288	7
STR	104	0	1
SI_	104	0	1	96	48	6
TAP	104	48	1
STR	104	96	5
SI_	104	96	5	96	48	2
TAP	104	144	5
TAP	104	192	0
XTP	104	288	1
XTP	104	288	4
TAP	105	0	5
TAP	105	48	5
TAP	105	96	4
TAP	105	144	6
TAP	105	192	2
TAP	105	240	2
TAP	105	288	3
TAP	105	336	1
STR	106	0	6
SI_	106	0	6	96	48	3
TAP	106	48	6
STR	106	96	7
SI_	106	96	7	96	48	2
TAP	106	144	7
TAP	106	192	5
XTP	106	288	1
XTP	106	288	4
STR	107	0	2
SI_	107	0	2	96	48	7
TAP	107	48	2
STR	107	96	3
SI_	107	96	3	96	48	6
TAP	107	144	3
TAP	107	192	1
XTP	107	288	0
XTP	107	288	5
TAP	108	0	2
TAP	108	48	2
TAP	108	96	3
TAP	108	144	0
TAP	108	192	5
TAP	108	240	5
TAP	108	288	4
TAP	108	336	7
TAP	109	0	1
TAP	109	0	6
TAP	109	48	1
TAP	109	48	6
TAP	109	96	2
TAP	109	96	5
TAP	109	144	2
TAP	109	144	5
TAP	109	192	3
TAP	109	216	4
TAP	109	240	3
TAP	109	288	2
TAP	109	288	5
STR	110	0	1
SI_	110	0	1	96	48	4
TAP	110	48	1
STR	110	96	5
SI_	110	96	5	96	48	0
TAP	110	144	5
TAP	110	192	3
TAP	110	240	3
TAP	110	288	2
TAP	110	288	7
STR	111	0	6
SI_	111	0	6	96	48	3
TAP	111	48	6
STR	111	96	2
SI_	111	96	2	96	48	7
TAP	111	144	2
TAP	111	192	4
TAP	111	240	4
TAP	111	288	0
TAP	111	288	5
STR	112	0	2
SI_	112	0	2	96	48	7
TAP	112	48	2
STR	112	96	6
SI_	112	96	6	96	48	3
TAP	112	144	6
TAP	112	192	0
TAP	112	240	0
TAP	112	288	1
TAP	112	288	4
STR	113	0	5
SI_	113	0	5	96	48	0
TAP	113	48	5
STR	113	96	1
SI_	113	96	1	96	48	4
TAP	113	144	1
TAP	113	192	7
TAP	113	240	7
TAP	113	288	3
TAP	113	288	6
STR	114	0	5
SI_	114	0	5	96	48	0
TAP	114	48	5
STR	114	96	4
SI_	114	96	4	96	48	1
TAP	114	144	4
TAP	114	192	7
TAP	114	240	7
TAP	114	288	3
TAP	114	288	6
STR	115	0	2
SI_	115	0	2	96	48	7
TAP	115	48	2
STR	115	96	3
SI_	115	96	3	96	48	6
TAP	115	144	3
TAP	115	192	0
TAP	115	240	0
TAP	115	288	1
TAP	115	288	5
TAP	116	0	3
TAP	116	0	4
XTP	116	48	3
XTP	116	48	4
XTP	116	96	2
XTP	116	96	5
XTP	116	144	2
XTP	116	144	5
TAP	116	192	1
TAP	116	192	6
XTP	116	240	1
XTP	116	240	6
XTP	116	288	0
XTP	116	288	7
TAP	116	336	0
TAP	116	336	7
BRK	117	0	1
BRK	117	0	6
TAP	117	96	2
TAP	117	144	1
TAP	117	144	3
TAP	117	240	5
STR	117	288	4
SCR	117	288	4	96	336	3
TAP	117	288	6
TTP	118	0	0	C	1	M1

T_REC_TAP	386
T_REC_BRK	10
T_REC_XTP	70
T_REC_HLD	71
T_REC_XHO	17
T_REC_STR	44
T_REC_BST	7
T_REC_XST	4
T_REC_TTP	47
T_REC_THO	1
T_REC_SLD	55
T_REC_ALL	712
T_NUM_TAP	551
T_NUM_BRK	17
T_NUM_HLD	89
T_NUM_SLD	55
T_NUM_ALL	712
T_JUDGE_TAP	568
T_JUDGE_HLD	232
T_JUDGE_SLD	55
T_JUDGE_ALL	855
TTM_EACHPAIRS	174
TTM_SCR_TAP	275500
TTM_SCR_BRK	44200
TTM_SCR_HLD	89000
TTM_SCR_SLD	82500
TTM_SCR_ALL	491200
TTM_SCR_S	474850
TTM_SCR_SS	489500
TTM_RAT_ACV	10034

