VERSION	0.00.00	1.03.00
FES_MODE	0
BPM_DEF	210.000	210.000	210.000	210.000
MET_DEF	4	4
RESOLUTION	384
CLK_DEF	384
COMPATIBLE_CODE	MA2

BPM	0	0	210.000
MET	0	0	4	4

HLD	2	0	2	384
HLD	3	0	3	384
HLD	4	0	4	384
TAP	5	0	5
HLD	6	0	6	192
TAP	6	192	7
TAP	7	0	6
TAP	7	0	7
TAP	7	192	0
TAP	7	192	7
HLD	8	0	1	192
TAP	8	192	0
TAP	9	0	0
TAP	9	0	7
TAP	9	192	1
TAP	9	192	6
XHO	10	0	2	192
XHO	10	0	5	192
XHO	11	0	1	192
XHO	11	0	6	192
XST	12	0	0
SXL	12	0	0	96	480	3
XST	12	0	7
SXR	12	0	7	96	480	4
XST	14	0	3
SXR	14	0	3	96	480	0
XST	14	0	4
SXL	14	0	4	96	480	7
XTP	16	0	1
XTP	16	0	6
TAP	18	0	1
TAP	18	96	1
TAP	18	192	0
TAP	18	288	0
TAP	19	0	7
TAP	19	96	7
TAP	19	192	0
TAP	19	192	6
TAP	20	0	5
TAP	20	96	5
TAP	20	192	4
TAP	20	288	4
TAP	21	0	3
TAP	21	96	3
TAP	21	192	2
TAP	21	192	4
TAP	22	0	1
TAP	22	96	1
TAP	22	192	0
TAP	22	288	0
TAP	23	0	7
TAP	23	96	7
TAP	23	192	0
TAP	23	192	6
TAP	24	0	5
TAP	24	96	5
TAP	24	192	4
TAP	24	288	4
TAP	25	0	3
TAP	25	96	3
TAP	25	192	2
TAP	25	192	5
STR	26	0	1
SI_	26	0	1	96	144	5
STR	27	0	6
SCL	27	0	6	96	144	3
STR	28	0	2
SCL	28	0	2	96	144	7
STR	29	0	6
SI_	29	0	6	96	144	3
STR	30	0	1
SI_	30	0	1	96	144	6
STR	31	0	5
SI_	31	0	5	96	144	2
STR	32	0	1
SV_	32	0	1	96	144	4
TAP	33	0	3
TAP	33	0	5
TAP	33	192	2
TAP	33	192	6
XTP	34	0	1
TAP	34	96	1
TAP	34	192	0
TAP	35	0	6
TAP	35	96	6
TAP	35	192	7
TAP	36	0	1
TAP	36	96	1
TAP	36	192	2
TAP	36	288	2
TAP	37	0	3
TAP	37	96	3
TAP	37	192	2
TAP	37	192	4
TAP	38	0	5
TAP	38	96	5
TAP	38	192	4
TAP	39	0	2
TAP	39	96	2
TAP	39	192	3
TAP	40	0	5
TAP	40	96	5
TAP	40	192	6
TAP	40	288	6
TAP	41	0	7
TAP	41	96	7
TAP	41	192	1
TAP	41	192	6
TAP	42	0	5
TAP	42	96	5
TAP	42	192	4
TAP	42	192	5
TAP	43	0	2
TAP	43	96	2
TAP	43	192	2
TAP	43	192	3
TAP	44	0	5
TAP	44	96	5
TAP	44	192	6
TAP	44	288	6
TAP	45	0	6
TAP	45	0	7
TAP	45	96	6
TAP	45	96	7
TAP	45	192	0
TAP	45	192	5
TAP	46	0	1
TAP	46	96	1
TAP	46	192	0
TAP	46	192	1
TAP	47	0	6
TAP	47	96	6
TAP	47	192	6
TAP	47	192	7
TAP	48	0	1
TAP	48	96	1
TAP	48	192	2
TAP	48	288	2
TAP	49	0	3
TAP	49	0	4
TAP	49	96	3
TAP	49	96	4
BRK	49	192	2
BRK	49	192	5
TAP	50	0	6
TAP	50	0	7
TAP	50	96	6
TAP	50	96	7
TAP	50	192	6
TAP	50	192	7
TAP	50	288	6
TAP	50	288	7
TAP	51	0	6
TAP	51	0	7
TAP	51	96	6
TAP	51	96	7
XTP	51	192	0
XTP	51	192	5
TAP	52	0	0
TAP	52	0	1
TAP	52	96	0
TAP	52	96	1
TAP	52	192	0
TAP	52	192	1
TAP	52	288	0
TAP	52	288	1
TAP	53	0	0
TAP	53	0	7
TAP	53	96	6
TAP	53	96	7
XTP	53	192	0
XTP	53	192	5
TAP	54	0	4
TAP	54	0	5
TAP	54	96	4
TAP	54	96	5
TAP	54	192	4
TAP	54	192	5
TAP	54	288	4
TAP	54	288	5
TAP	55	0	4
TAP	55	0	5
TAP	55	96	4
TAP	55	96	5
XTP	55	192	3
XTP	55	192	6
TAP	56	0	2
TAP	56	0	3
TAP	56	96	3
TAP	56	96	4
TAP	56	192	4
TAP	56	192	5
TAP	56	288	3
TAP	56	288	4
TAP	57	0	2
TAP	57	0	5
TAP	57	96	1
TAP	57	96	6
TAP	57	192	0
TAP	57	192	7
TAP	57	288	1
TAP	57	288	6
BST	58	0	2
SLL	58	0	2	96	432	4
BST	58	0	5
SLR	58	0	5	96	432	3
TTP	60	0	3	E	0	L1
TTP	61	0	2	B	0	L1
TTP	62	0	1	B	0	L1
TTP	63	0	0	B	0	L1
TTP	64	0	7	B	0	L1
TTP	65	0	6	B	0	L1
TTP	66	0	5	B	0	L1
TTP	67	0	4	B	0	L1
TTP	68	0	2	B	0	L1
TTP	68	0	3	B	0	L1
TTP	69	0	0	B	0	L1
TTP	69	0	1	B	0	L1
TTP	70	0	6	B	0	L1
TTP	70	0	7	B	0	L1
TTP	71	0	4	B	0	L1
TTP	71	0	5	B	0	L1
TTP	72	0	1	E	0	L1
TTP	72	0	7	E	0	L1
TTP	73	0	1	B	0	L1
TTP	73	0	6	B	0	L1
THO	74	0	0	384	C	0	L1
TTP	74	0	2	B	0	L1
TTP	74	0	5	B	0	L1
THO	76	0	0	384	C	0	L1
TTP	76	0	2	B	0	L1
TTP	76	0	5	B	0	L1
XHO	78	0	6	384
HLD	79	0	7	384
HLD	80	0	0	384
XTP	81	0	1
TAP	82	0	2
TAP	82	96	2
TAP	82	192	1
TAP	82	288	1
TAP	83	0	0
TAP	83	48	0
TAP	83	96	0
TAP	83	192	7
TAP	83	240	7
TAP	83	288	7
BST	84	0	1
SLR	84	0	1	96	528	0
BST	84	0	6
SLL	84	0	6	96	528	7
XTP	86	0	1
TAP	86	96	1
TAP	86	192	0
TAP	86	192	1
TAP	86	288	0
TAP	86	288	1
TAP	87	0	2
TAP	87	96	3
TAP	87	192	2
TAP	87	192	4
TAP	88	0	5
TAP	88	96	5
TAP	88	192	4
TAP	88	192	5
TAP	88	288	4
TAP	88	288	5
TAP	89	0	6
TAP	89	96	7
TAP	89	192	1
TAP	89	192	6
TAP	90	0	1
TAP	90	96	1
TAP	90	192	0
TAP	90	192	1
TAP	90	288	0
TAP	90	288	1
TAP	91	0	2
TAP	91	96	3
TAP	91	192	2
TAP	91	192	4
TAP	92	0	5
TAP	92	96	5
TAP	92	192	4
TAP	92	192	5
TAP	92	288	4
TAP	92	288	5
TAP	93	0	3
TAP	93	0	4
TAP	93	96	3
TAP	93	96	4
XTP	93	192	2
XTP	93	192	5
TAP	94	0	6
TAP	94	96	6
TAP	94	96	7
TAP	94	192	1
TAP	94	288	0
TAP	94	288	1
TAP	95	0	2
TAP	95	96	2
TAP	95	96	3
TAP	95	192	1
TAP	95	192	4
TAP	96	0	5
TAP	96	96	4
TAP	96	96	5
TAP	96	192	2
TAP	96	288	2
TAP	96	288	3
TAP	97	0	1
TAP	97	96	0
TAP	97	96	1
TAP	97	192	2
TAP	97	192	7
TAP	98	0	6
TAP	98	96	6
TAP	98	96	7
TAP	98	192	1
TAP	98	288	0
TAP	98	288	1
TAP	99	0	2
TAP	99	96	2
TAP	99	96	3
TAP	99	192	1
TAP	99	192	4
TAP	100	0	3
TAP	100	0	4
TAP	100	96	3
TAP	100	96	4
TAP	100	192	2
TAP	100	192	5
TAP	100	288	2
TAP	100	288	5
XTP	101	0	1
XTP	101	0	6
XTP	101	96	1
XTP	101	96	6
XTP	101	192	0
XTP	101	192	7
TAP	102	0	1
TAP	102	48	1
TAP	102	96	1
TAP	102	192	0
TAP	102	192	1
TAP	102	288	0
TAP	102	288	7
TAP	103	0	6
TAP	103	0	7
TAP	103	96	6
TAP	103	96	7
TAP	103	192	0
TAP	103	192	5
TAP	104	0	5
TAP	104	48	5
TAP	104	96	5
TAP	104	192	4
TAP	104	192	5
TAP	104	288	3
TAP	104	288	4
TAP	105	0	2
TAP	105	0	3
TAP	105	96	2
TAP	105	96	3
TAP	105	192	1
TAP	105	192	4
TAP	106	0	1
TAP	106	48	1
TAP	106	96	1
TAP	106	192	0
TAP	106	192	1
TAP	106	288	0
TAP	106	288	7
TAP	107	0	6
TAP	107	0	7
TAP	107	96	6
TAP	107	96	7
TAP	107	192	0
TAP	107	192	5
TAP	108	0	6
TAP	108	48	6
TAP	108	96	6
TAP	108	192	0
TAP	108	192	7
TAP	108	288	0
TAP	108	288	7
TAP	109	0	1
TAP	109	0	6
TAP	109	96	1
TAP	109	96	6
BRK	109	192	2
BRK	109	192	5
TAP	110	0	1
TAP	110	48	1
TAP	110	96	1
TAP	110	192	0
TAP	110	192	1
TAP	110	288	0
TAP	110	288	7
TAP	111	0	6
TAP	111	48	6
TAP	111	96	6
TAP	111	192	5
TAP	111	192	7
TAP	112	0	5
TAP	112	48	5
TAP	112	96	5
TAP	112	192	4
TAP	112	192	5
TAP	112	288	3
TAP	112	288	4
TAP	113	0	2
TAP	113	48	2
TAP	113	96	2
TAP	113	192	1
TAP	113	192	3
TAP	114	0	1
TAP	114	48	1
TAP	114	96	1
TAP	114	192	0
TAP	114	192	1
TAP	114	288	2
TAP	114	288	7
TAP	115	0	6
TAP	115	48	6
TAP	115	96	6
TAP	115	192	6
TAP	115	192	7
TAP	115	288	0
TAP	115	288	5
TAP	116	0	0
TAP	116	48	0
TAP	116	96	0
TAP	116	192	7
TAP	116	240	7
TAP	116	288	7
TAP	117	0	1
TAP	117	0	6
TAP	117	192	2
TAP	117	192	5
BST	118	0	3
SCL	118	0	3	96	672	4
BRK	118	0	4

T_REC_TAP	348
T_REC_BRK	5
T_REC_XTP	19
T_REC_HLD	7
T_REC_XHO	5
T_REC_STR	7
T_REC_BST	5
T_REC_XST	4
T_REC_TTP	24
T_REC_THO	2
T_REC_SLD	16
T_REC_ALL	442
T_NUM_TAP	402
T_NUM_BRK	10
T_NUM_HLD	14
T_NUM_SLD	16
T_NUM_ALL	442
T_JUDGE_TAP	412
T_JUDGE_HLD	88
T_JUDGE_SLD	16
T_JUDGE_ALL	516
TTM_EACHPAIRS	124
TTM_SCR_TAP	201000
TTM_SCR_BRK	26000
TTM_SCR_HLD	14000
TTM_SCR_SLD	24000
TTM_SCR_ALL	265000
TTM_SCR_S	256100
TTM_SCR_SS	264000
TTM_RAT_ACV	10037

