VERSION	0.00.00	1.03.00
FES_MODE	0
BPM_DEF	210.000	210.000	210.000	210.000
MET_DEF	4	4
RESOLUTION	384
CLK_DEF	384
COMPATIBLE_CODE	MA2

BPM	0	0	210.000
MET	0	0	4	4

TAP	6	0	3
TAP	7	0	3
TAP	8	0	4
TAP	9	0	4
TAP	10	0	3
TAP	11	0	3
HLD	12	0	3	384
HLD	12	0	4	384
THO	14	0	0	768	C	0	L1
XTP	18	0	0
XTP	18	0	1
TAP	19	0	1
XTP	20	0	2
XTP	20	0	3
TAP	21	0	3
XTP	22	0	4
XTP	22	0	5
TAP	23	0	5
XTP	24	0	6
XTP	24	0	7
TAP	25	0	7
XTP	26	0	7
TAP	27	0	6
TAP	28	0	5
TAP	29	0	4
TAP	30	0	3
TAP	31	0	2
TAP	32	0	1
XTP	33	0	0
XTP	33	0	7
TAP	34	0	0
TAP	34	192	0
TAP	35	0	0
TAP	36	0	1
TAP	36	192	1
TAP	37	0	1
TAP	38	0	2
TAP	38	192	2
TAP	39	0	2
TAP	40	0	3
TAP	40	192	3
TAP	41	0	3
TAP	41	0	4
TAP	42	0	4
TAP	42	192	4
TAP	43	0	4
TAP	44	0	5
TAP	44	192	5
TAP	45	0	5
TAP	46	0	6
TAP	46	192	6
TAP	47	0	6
TAP	48	0	7
TAP	48	192	7
BRK	49	0	0
BRK	49	0	7
TAP	50	0	7
TAP	50	96	7
TAP	50	192	7
TAP	51	0	6
TAP	52	0	5
TAP	52	96	5
TAP	52	192	5
TAP	53	0	3
TAP	53	0	4
TAP	54	0	3
TAP	54	96	3
TAP	54	192	3
TAP	55	0	2
TAP	56	0	1
TAP	56	96	1
TAP	56	192	1
TAP	57	0	0
BRK	58	0	1
BRK	58	0	7
TTP	60	0	0	E	0	L1
TTP	61	0	7	B	0	L1
TTP	62	0	6	B	0	L1
TTP	63	0	5	E	0	L1
TTP	63	0	6	E	0	L1
TTP	64	0	4	E	0	L1
TTP	65	0	3	B	0	L1
TTP	66	0	2	B	0	L1
TTP	67	0	1	E	0	L1
TTP	67	0	2	E	0	L1
TTP	68	0	6	B	0	L1
TTP	68	0	7	B	0	L1
TTP	69	0	4	B	0	L1
TTP	69	0	5	B	0	L1
TTP	70	0	2	B	0	L1
TTP	70	0	3	B	0	L1
TTP	71	0	0	B	0	L1
TTP	71	0	1	B	0	L1
TTP	72	0	6	B	0	L1
TTP	72	0	7	B	0	L1
TTP	72	0	7	E	0	L1
TTP	73	0	4	B	0	L1
TTP	73	0	5	B	0	L1
TTP	73	0	5	E	0	L1
TTP	74	0	2	B	0	L1
TTP	74	0	3	B	0	L1
TTP	74	0	3	E	0	L1
TTP	75	0	0	B	0	L1
TTP	75	0	1	B	0	L1
TTP	75	0	1	E	0	L1
THO	76	0	0	384	C	0	L1
TTP	78	0	5	B	0	L1
TTP	78	0	6	B	0	L1
TTP	78	0	6	E	0	L1
TTP	78	0	7	B	0	L1
TTP	78	0	7	E	0	L1
TTP	80	0	0	B	0	L1
TTP	80	0	1	B	0	L1
TTP	80	0	1	E	0	L1
TTP	80	0	2	B	0	L1
TTP	80	0	2	E	0	L1
THO	82	0	0	768	C	1	L1
TAP	86	0	7
TAP	86	96	7
TAP	86	192	7
TAP	87	0	6
TAP	87	192	6
TAP	88	0	5
TAP	88	96	5
TAP	88	192	5
TAP	89	0	3
TAP	89	0	4
TAP	89	192	3
TAP	89	192	4
TAP	90	0	3
TAP	90	96	3
TAP	90	192	3
TAP	91	0	2
TAP	91	192	2
TAP	92	0	1
TAP	92	96	1
TAP	92	192	1
XTP	93	0	0
XTP	93	0	1
TAP	94	0	0
TAP	94	96	0
TAP	94	192	0
TAP	95	0	1
TAP	95	96	1
TAP	95	192	1
TAP	96	0	2
TAP	96	96	2
TAP	96	192	2
TAP	97	0	3
TAP	97	0	4
TAP	97	192	3
TAP	97	192	4
TAP	98	0	4
TAP	98	96	4
TAP	98	192	4
TAP	99	0	5
TAP	99	96	5
TAP	99	192	5
TAP	100	0	6
TAP	100	96	6
TAP	100	192	6
BRK	101	0	0
BRK	101	0	7
TAP	102	0	6
TAP	102	96	6
TAP	102	192	6
TAP	102	192	7
TAP	103	0	5
TAP	103	96	5
TAP	103	192	4
TAP	103	192	5
TAP	104	0	3
TAP	104	96	3
TAP	104	192	3
TAP	104	192	4
XTP	105	0	2
XTP	105	0	5
TAP	106	0	1
TAP	106	96	1
TAP	106	192	0
TAP	106	192	1
TAP	107	0	2
TAP	107	96	2
TAP	107	192	2
TAP	107	192	3
TAP	108	0	4
TAP	108	96	4
TAP	108	192	3
TAP	108	192	4
XTP	109	0	2
XTP	109	0	5
TAP	110	0	4
TAP	110	96	4
TAP	110	192	4
TAP	110	288	4
TAP	111	0	5
TAP	111	96	5
TAP	111	192	4
TAP	111	192	5
TAP	112	0	3
TAP	112	96	3
TAP	112	192	3
TAP	112	288	3
TAP	113	0	2
TAP	113	96	2
TAP	113	192	2
TAP	113	192	3
TAP	114	0	1
TAP	114	96	1
TAP	114	192	1
TAP	114	288	1
TAP	115	0	0
TAP	115	96	0
TAP	115	192	0
TAP	115	192	1
TAP	116	0	7
TAP	116	96	7
TAP	116	192	7
TAP	116	288	7
HLD	117	0	6	192
HLD	117	0	7	192
STR	118	0	0
SI_	118	0	0	96	672	3
STR	118	0	7
SI_	118	0	7	96	672	4

T_REC_TAP	151
T_REC_BRK	6
T_REC_XTP	17
T_REC_HLD	4
T_REC_XHO	0
T_REC_STR	2
T_REC_BST	0
T_REC_XST	0
T_REC_TTP	40
T_REC_THO	3
T_REC_SLD	2
T_REC_ALL	225
T_NUM_TAP	210
T_NUM_BRK	6
T_NUM_HLD	7
T_NUM_SLD	2
T_NUM_ALL	225
T_JUDGE_TAP	216
T_JUDGE_HLD	64
T_JUDGE_SLD	2
T_JUDGE_ALL	282
TTM_EACHPAIRS	29
TTM_SCR_TAP	105000
TTM_SCR_BRK	15600
TTM_SCR_HLD	7000
TTM_SCR_SLD	3000
TTM_SCR_ALL	130600
TTM_SCR_S	126100
TTM_SCR_SS	130000
TTM_RAT_ACV	10046

