VERSION	0.00.00	1.03.00
FES_MODE	0
BPM_DEF	200.000	200.000	200.000	200.000
MET_DEF	4	4
RESOLUTION	384
CLK_DEF	384
COMPATIBLE_CODE	MA2

BPM	0	0	200.000
MET	0	0	4	4

HLD	2	0	1	1152
TAP	2	0	3
TTP	2	288	7	B	0	M1
TTP	3	0	5	B	0	M1
TTP	3	288	3	B	0	M1
TTP	4	0	2	E	0	M1
TTP	4	288	0	E	0	M1
TTP	5	0	0	C	0	M1
TAP	5	192	6
TAP	5	192	7
TAP	5	288	5
XHO	6	0	1	384
XTP	6	0	4
TAP	6	192	0
TAP	6	288	7
HLD	7	0	6	384
TAP	7	192	4
TAP	7	288	3
HLD	8	0	2	384
TAP	8	192	0
TAP	8	288	7
STR	9	0	6
SSL	9	0	6	96	144	2
TAP	9	288	0
TAP	10	0	2
HLD	10	0	3	288
TAP	10	144	2
TAP	10	288	2
TAP	10	336	2
TAP	10	360	3
HLD	11	0	1	288
TAP	11	144	6
TAP	11	288	5
TAP	11	336	5
TAP	11	360	4
HLD	12	0	6	288
TAP	12	144	3
TAP	12	288	2
TAP	12	336	2
TAP	12	360	3
STR	13	0	1
SXL	13	0	1	96	192	0
TAP	13	192	6
TAP	13	288	5
TAP	14	0	4
XTP	14	48	0
XTP	14	48	4
TAP	14	96	4
XTP	14	144	1
XTP	14	144	4
TAP	14	192	4
XTP	14	240	2
XTP	14	240	4
TAP	14	288	4
XTP	14	336	3
XTP	14	336	4
TAP	15	0	3
XTP	15	48	3
XTP	15	48	4
TAP	15	96	3
XTP	15	144	3
XTP	15	144	5
TAP	15	192	3
XTP	15	240	3
XTP	15	240	6
TAP	15	288	3
XTP	15	336	3
XTP	15	336	7
BRK	16	0	2
BRK	16	0	6
TAP	16	48	2
TAP	16	48	6
TAP	16	96	1
TAP	16	96	5
TAP	16	144	1
TAP	16	144	5
BRK	16	192	0
TAP	16	204	1
TAP	16	216	2
TAP	16	228	3
TAP	16	240	4
TAP	16	252	5
TAP	16	264	6
TAP	16	276	7
TAP	16	288	0
TAP	16	300	1
TAP	16	312	2
TAP	16	324	3
TAP	16	336	4
TAP	16	348	5
TAP	16	360	6
TAP	16	372	7
BRK	17	0	0
BST	17	0	4
SCL	17	0	4	96	144	5
TTP	17	288	0	C	0	M1
BRK	18	0	4
BRK	18	0	5
TAP	18	96	3
TAP	18	96	6
TAP	18	192	2
TAP	18	192	4
TAP	18	240	3
TAP	18	288	1
TAP	18	336	4
TAP	19	0	3
TAP	19	0	5
TAP	19	48	4
TAP	19	96	6
TAP	19	144	3
STR	19	192	4
SI_	19	192	4	96	48	1
SI_	19	192	4	96	48	7
TAP	20	0	0
TAP	20	0	6
TAP	20	48	6
TAP	20	96	4
TAP	20	96	6
TAP	20	192	2
TAP	20	192	3
TAP	20	240	2
TAP	20	288	0
TAP	20	288	2
TAP	21	0	4
TAP	21	0	5
TAP	21	48	4
BRK	21	96	6
TAP	21	144	2
TAP	21	192	3
TAP	21	240	1
XTP	21	288	0
XTP	21	288	4
TAP	22	0	2
TAP	22	0	3
TAP	22	96	1
TAP	22	96	4
TAP	22	192	3
TAP	22	192	5
TAP	22	240	4
TAP	22	288	6
TAP	22	336	3
TAP	23	0	2
TAP	23	0	4
TAP	23	48	3
TAP	23	96	1
TAP	23	144	4
TAP	23	192	3
TAP	23	192	5
TAP	23	240	4
TAP	23	288	2
TAP	23	288	6
STR	24	0	1
SI_	24	0	1	96	48	3
TAP	24	48	0
TAP	24	96	1
TAP	24	144	4
STR	24	192	6
SI_	24	192	6	96	48	4
TAP	24	240	7
TAP	24	288	6
TAP	24	336	3
STR	25	0	1
SI_	25	0	1	96	48	5
STR	25	96	3
SF_	25	96	3	96	48	7
TAP	25	192	3
BRK	25	288	1
BRK	25	288	5
XTP	26	0	2
XTP	26	0	6
TAP	26	96	3
TAP	26	96	7
TAP	26	192	3
TAP	26	192	4
TAP	26	240	2
TAP	26	288	1
TAP	26	288	3
TAP	26	336	2
TAP	27	0	3
TAP	27	0	4
TAP	27	48	5
TAP	27	96	4
TAP	27	96	6
TAP	27	144	5
STR	27	192	3
SI_	27	192	3	96	48	6
TAP	27	192	4
TAP	27	240	2
XTP	27	288	1
XTP	27	288	3
TAP	28	0	1
TAP	28	0	7
TAP	28	48	1
TAP	28	96	1
TAP	28	96	3
TAP	28	192	4
TAP	28	192	6
TAP	28	240	6
TAP	28	288	0
TAP	28	288	6
TTP	29	0	6	B	0	M1
TTP	29	0	7	E	0	M1
TTP	29	48	1	B	0	M1
TTP	29	48	1	E	0	M1
TTP	29	96	5	E	0	M1
TTP	29	120	4	B	0	M1
TTP	29	144	3	B	0	M1
TTP	29	168	3	E	0	M1
TTP	29	192	0	C	0	M1
XTP	29	288	1
XTP	29	288	6
TAP	30	0	0
TAP	30	0	4
TAP	30	96	2
TAP	30	96	6
TAP	30	192	3
TAP	30	192	4
TAP	30	240	5
TAP	30	288	4
TAP	30	288	6
TAP	30	336	5
TAP	31	0	3
TAP	31	0	4
TAP	31	48	2
TAP	31	96	1
TAP	31	96	3
TAP	31	144	2
TAP	31	192	3
STR	31	192	4
SI_	31	192	4	96	48	1
TAP	31	240	5
XTP	31	288	4
XTP	31	288	6
STR	32	0	6
SCL	32	0	6	96	48	4
TAP	32	48	7
TAP	32	96	6
TAP	32	144	3
STR	32	192	1
SCR	32	192	1	96	48	3
TAP	32	240	0
TAP	32	288	1
TAP	32	336	4
STR	33	0	6
SI_	33	0	6	96	48	2
STR	33	96	4
SF_	33	96	4	96	48	0
TAP	33	192	4
TAP	33	288	2
TAP	33	288	6
BRK	34	0	0
BST	34	0	7
SI_	34	0	7	96	48	3
TAP	34	96	2
TAP	34	192	0
STR	34	192	7
SI_	34	192	7	96	48	5
TAP	34	240	1
TAP	34	288	2
TAP	35	0	0
STR	35	0	7
SI_	35	0	7	96	48	3
TAP	35	96	2
TAP	35	144	1
TAP	35	192	0
STR	35	192	7
SI_	35	192	7	96	48	5
TAP	35	288	3
STR	36	0	0
SI_	36	0	0	96	48	4
TAP	36	0	7
TAP	36	96	5
STR	36	192	0
SI_	36	192	0	96	48	2
TAP	36	192	7
TAP	36	240	6
TAP	36	288	5
TAP	36	336	6
STR	37	0	0
SI_	37	0	0	96	48	4
TAP	37	0	7
BRK	37	96	5
TAP	37	144	6
STR	37	192	0
SI_	37	192	0	96	48	2
TAP	37	192	7
TAP	37	288	4
TAP	38	0	5
TAP	38	48	5
TAP	38	96	4
TAP	38	144	6
TAP	38	192	3
TAP	38	240	3
TAP	38	288	4
TAP	38	336	4
TAP	39	0	2
TAP	39	48	2
TAP	39	96	3
TAP	39	144	1
TAP	39	192	4
TAP	39	240	4
TAP	39	288	3
TAP	39	336	3
TAP	40	0	5
TAP	40	48	5
TAP	40	96	4
TAP	40	144	7
TAP	40	192	2
TAP	40	240	2
TAP	40	288	3
TAP	40	336	0
STR	41	0	3
SI_	41	0	3	96	48	5
STR	41	96	1
SI_	41	96	1	96	48	3
TAP	41	192	5
XTP	41	288	1
XTP	41	288	6
STR	42	0	3
SI_	42	0	3	96	48	7
TAP	42	0	4
BRK	42	96	6
STR	42	192	3
SI_	42	192	3	96	48	1
TAP	42	192	4
TAP	42	240	5
TAP	42	288	6
STR	43	0	3
SI_	43	0	3	96	48	7
TAP	43	0	4
BRK	43	96	6
TAP	43	144	5
STR	43	192	3
SI_	43	192	3	96	48	1
TAP	43	192	4
TAP	43	288	7
TAP	44	0	3
STR	44	0	4
SI_	44	0	4	96	48	0
BRK	44	96	1
TAP	44	192	3
STR	44	192	4
SI_	44	192	4	96	48	6
TAP	44	240	2
TAP	44	288	1
TAP	44	336	2
TAP	45	0	3
STR	45	0	4
SI_	45	0	4	96	48	0
BRK	45	96	1
TAP	45	144	2
TAP	45	192	3
STR	45	192	4
SI_	45	192	4	96	48	6
TAP	45	288	0
HLD	46	0	2	48
HLD	46	0	3	48
XTP	46	96	0
XTP	46	96	7
TAP	46	192	5
TAP	46	240	5
TAP	46	288	4
TAP	46	336	4
HLD	47	0	4	48
HLD	47	0	5	48
XTP	47	96	0
XTP	47	96	7
TAP	47	192	2
TAP	47	240	2
TAP	47	288	3
TAP	47	336	3
HLD	48	0	2	48
HLD	48	0	3	48
XTP	48	96	0
XTP	48	96	7
TAP	48	192	5
TAP	48	240	5
TAP	48	288	4
TAP	48	336	4
HLD	49	0	6	96
HLD	49	96	4	96
HLD	49	192	3	96
HLD	49	288	1	96
TTP	50	0	0	C	1	M1
HLD	52	0	2	384
TAP	52	96	3
TTP	52	192	1	B	0	M1
TAP	52	288	3
HLD	53	0	3	288
TAP	53	96	2
TTP	53	192	1	B	0	M1
XHO	54	0	5	384
TAP	54	96	4
TTP	54	192	6	B	0	M1
TAP	54	288	4
HLD	55	0	4	384
TAP	55	96	5
TTP	55	192	6	B	0	M1
TAP	55	288	5
HLD	56	0	5	384
TAP	56	96	4
TTP	56	192	6	B	0	M1
TAP	56	288	4
HLD	57	0	4	288
TAP	57	96	5
TTP	57	192	5	B	0	M1
TTP	57	192	6	B	0	M1
BST	58	0	4
SI_	58	0	4	96	48	2
TAP	58	96	5
STR	58	192	6
SI_	58	192	6	96	48	4
TAP	58	288	7
STR	59	0	0
SI_	59	0	0	96	48	6
TAP	59	96	1
STR	59	192	2
SI_	59	192	2	96	48	0
TAP	59	288	3
STR	60	0	4
SI_	60	0	4	96	48	2
TAP	60	96	5
STR	60	192	6
SI_	60	192	6	96	48	4
TAP	60	288	7
STR	61	0	0
SI_	61	0	0	96	48	6
TAP	61	96	1
STR	61	192	2
SI_	61	192	2	96	48	0
TAP	61	288	3
BST	62	0	3
SI_	62	0	3	96	48	5
TAP	62	96	2
STR	62	192	1
SI_	62	192	1	96	48	3
TAP	62	288	0
STR	63	0	7
SI_	63	0	7	96	48	1
TAP	63	96	6
STR	63	192	5
SI_	63	192	5	96	48	7
TAP	63	288	4
STR	64	0	3
SI_	64	0	3	96	48	5
TAP	64	96	2
STR	64	192	1
SI_	64	192	1	96	48	3
TAP	64	288	0
STR	65	0	7
SI_	65	0	7	96	48	1
TAP	65	96	6
TAP	65	192	3
TAP	65	192	4
BRK	65	288	1
BRK	65	288	6
TAP	66	0	4
HLD	66	0	5	336
TAP	66	144	4
TAP	66	288	4
TAP	66	336	0
TAP	66	360	1
HLD	67	0	2	336
TAP	67	144	3
TAP	67	288	3
TAP	67	336	7
TAP	67	360	6
HLD	68	0	5	336
TAP	68	144	4
TAP	68	288	4
TAP	68	336	7
TAP	68	360	0
HLD	69	0	1	192
HLD	69	192	3	96
HLD	69	288	4	96
TAP	70	0	5
TAP	70	48	5
TAP	70	96	5
TAP	70	144	5
TAP	70	192	5
TAP	70	216	4
TAP	70	240	5
TAP	70	288	5
TAP	70	336	5
TAP	71	0	3
TAP	71	48	3
TAP	71	96	3
TAP	71	144	3
TAP	71	192	3
TAP	71	216	4
TAP	71	240	3
TAP	71	288	3
TAP	71	336	3
TAP	72	0	5
TAP	72	48	5
TAP	72	96	5
TAP	72	144	5
TAP	72	192	5
TAP	72	216	4
TAP	72	240	5
TAP	72	288	5
TAP	72	336	5
TAP	73	0	3
TAP	73	0	4
TAP	73	48	2
TAP	73	96	0
TAP	73	96	1
TAP	73	144	7
TAP	73	192	2
TAP	73	192	6
TAP	73	288	0
TAP	73	288	4
TAP	74	0	4
HLD	74	0	5	288
TAP	74	144	4
TAP	74	240	4
HLD	74	288	2	384
TAP	75	0	3
TAP	75	144	3
TAP	75	240	3
HLD	75	288	6	384
TAP	76	0	4
TAP	76	144	4
TAP	76	240	4
HLD	76	288	1	96
HLD	77	0	4	288
XHO	77	96	0	288
XTP	78	0	7
XTP	78	48	0
XTP	78	48	7
TAP	78	96	7
XTP	78	144	1
XTP	78	144	7
TAP	78	192	7
XTP	78	240	2
XTP	78	240	7
TAP	78	288	7
XTP	78	336	3
XTP	78	336	7
TAP	79	0	3
XTP	79	48	3
XTP	79	48	4
TAP	79	96	3
XTP	79	144	3
XTP	79	144	5
TAP	79	192	3
XTP	79	240	3
XTP	79	240	6
TAP	79	288	3
XTP	79	336	3
XTP	79	336	7
BRK	80	0	2
BRK	80	0	6
TAP	80	48	2
TAP	80	48	6
TAP	80	96	1
TAP	80	96	5
TAP	80	144	1
TAP	80	144	5
BRK	80	192	0
TAP	80	204	1
TAP	80	216	2
TAP	80	228	3
TAP	80	240	4
TAP	80	252	5
TAP	80	264	6
TAP	80	276	7
TAP	80	288	0
TAP	80	300	1
TAP	80	312	2
TAP	80	324	3
TAP	80	336	4
TAP	80	348	5
TAP	80	360	6
TAP	80	372	7
BST	81	0	0
SXL	81	0	0	96	144	7
BST	81	0	4
SXL	81	0	4	96	144	3
TTP	81	288	0	C	0	M1
TAP	82	0	3
TAP	82	0	7
TAP	82	48	5
TAP	82	96	0
TAP	82	96	3
TAP	82	144	2
TAP	82	192	4
TAP	82	192	7
TAP	82	240	5
TAP	82	288	0
TAP	82	288	3
TAP	82	336	2
TAP	83	0	4
BST	83	0	6
SI_	83	0	6	96	48	4
BRK	83	96	6
STR	83	96	7
SI_	83	96	7	96	48	3
STR	83	192	0
SI_	83	192	0	96	48	2
BRK	83	192	7
BRK	83	288	0
TAP	83	288	2
TAP	84	0	0
TAP	84	0	4
TAP	84	48	2
TAP	84	96	4
TAP	84	96	7
TAP	84	144	5
TAP	84	192	0
TAP	84	192	3
TAP	84	240	2
TAP	84	288	4
TAP	84	288	7
TAP	84	336	5
BST	85	0	1
SI_	85	0	1	96	48	3
TAP	85	0	3
STR	85	96	0
SI_	85	96	0	96	48	4
BRK	85	96	1
BRK	85	192	0
STR	85	192	7
SI_	85	192	7	96	48	5
TAP	85	288	5
BRK	85	288	7
TAP	86	0	3
TAP	86	0	7
TAP	86	48	5
TAP	86	96	0
TAP	86	96	3
TAP	86	144	2
TAP	86	192	4
TAP	86	192	7
TAP	86	240	5
TAP	86	288	0
TAP	86	288	3
TAP	86	336	2
TAP	87	0	4
BST	87	0	6
SI_	87	0	6	96	48	4
BRK	87	96	6
STR	87	96	7
SI_	87	96	7	96	48	3
STR	87	192	0
SI_	87	192	0	96	48	2
BRK	87	192	7
BRK	87	288	0
TAP	87	288	2
STR	88	0	6
SI_	88	0	6	96	48	3
STR	88	96	2
SI_	88	96	2	96	48	7
STR	88	192	5
SI_	88	192	5	96	48	0
STR	88	288	1
SI_	88	288	1	96	48	4
STR	89	0	6
SI_	89	0	6	96	48	3
STR	89	96	2
SI_	89	96	2	96	48	7
TAP	89	192	4
XTP	89	288	2
XTP	89	288	6
STR	90	0	0
SI_	90	0	0	96	48	5
TAP	90	0	7
BRK	90	96	0
BRK	90	96	7
STR	90	192	0
SCR	90	192	0	96	48	3
TAP	90	192	7
TAP	90	240	6
XTP	90	288	0
TAP	90	288	5
STR	91	0	0
SI_	91	0	0	96	48	5
TAP	91	0	7
XTP	91	96	0
TAP	91	96	5
TAP	91	144	6
STR	91	192	0
SCR	91	192	0	96	48	3
TAP	91	192	7
XTP	91	288	0
TAP	91	288	4
TAP	92	0	0
STR	92	0	7
SI_	92	0	7	96	48	2
TAP	92	96	0
XTP	92	96	7
TAP	92	192	0
STR	92	192	7
SCL	92	192	7	96	48	4
TAP	92	240	1
TAP	92	288	2
XTP	92	288	7
TAP	92	336	1
TAP	93	0	0
STR	93	0	7
SI_	93	0	7	96	48	2
TAP	93	96	2
XTP	93	96	7
TAP	93	144	1
STR	93	192	0
SI_	93	192	0	96	48	3
STR	93	192	7
SI_	93	192	7	96	48	4
BRK	93	288	0
BRK	93	288	7
TAP	94	0	2
TAP	94	48	2
TAP	94	96	3
TAP	94	144	1
TAP	94	192	5
TAP	94	240	5
TAP	94	288	4
TAP	94	336	6
TAP	95	0	2
TAP	95	48	2
TAP	95	96	3
TAP	95	144	0
TAP	95	192	5
TAP	95	240	5
TAP	95	288	4
TAP	95	336	7
TAP	96	0	2
TAP	96	0	6
TAP	96	48	2
TAP	96	48	6
TAP	96	96	1
TAP	96	96	5
TAP	96	144	1
TAP	96	144	5
TAP	96	192	0
TAP	96	192	4
TAP	96	240	0
TAP	96	240	4
TAP	96	288	3
TAP	96	288	7
TAP	96	336	3
TAP	96	336	7
XTP	97	0	4
XTP	97	0	6
XTP	97	72	1
XTP	97	72	3
XTP	97	144	0
XTP	97	144	7
XST	97	192	1
SI_	97	192	1	96	48	3
XST	97	192	6
SI_	97	192	6	96	48	4
BRK	97	288	1
BRK	97	288	6
STR	98	0	2
SI_	98	0	2	96	48	6
TAP	98	48	2
STR	98	96	4
SI_	98	96	4	96	48	7
TAP	98	144	4
STR	98	192	0
SI_	98	192	0	96	48	3
TAP	98	240	0
STR	98	288	6
SI_	98	288	6	96	48	2
TAP	98	336	6
STR	99	0	4
SI_	99	0	4	96	48	1
TAP	99	48	4
STR	99	96	7
SI_	99	96	7	96	48	3
TAP	99	144	7
STR	99	192	0
SI_	99	192	0	96	48	4
TAP	99	240	0
STR	99	288	6
SI_	99	288	6	96	48	3
TAP	99	336	6
STR	100	0	1
SCR	100	0	1	96	48	4
TAP	100	48	1
STR	100	96	5
SCR	100	96	5	96	48	0
TAP	100	144	5
STR	100	192	2
SV_	100	192	2	96	48	7
TAP	100	240	2
STR	100	288	6
SV_	100	288	6	96	48	3
TAP	100	336	6
STR	101	0	0
SI_	101	0	0	96	48	3
SI_	101	0	0	96	48	5
BRK	101	96	0
STR	101	192	7
SF_	101	192	7	96	48	3
BRK	101	288	7
STR	102	0	6
SI_	102	0	6	96	48	2
TAP	102	48	6
STR	102	96	3
SI_	102	96	3	96	48	0
TAP	102	144	3
STR	102	192	7
SI_	102	192	7	96	48	4
TAP	102	240	7
STR	102	288	1
SI_	102	288	1	96	48	5
TAP	102	336	1
STR	103	0	3
SI_	103	0	3	96	48	6
TAP	103	48	3
STR	103	96	0
SI_	103	96	0	96	48	4
TAP	103	144	0
STR	103	192	7
SI_	103	192	7	96	48	3
TAP	103	240	7
STR	103	288	1
SI_	103	288	1	96	48	4
TAP	103	336	1
STR	104	0	6
SCL	104	0	6	96	48	3
TAP	104	48	6
STR	104	96	2
SCL	104	96	2	96	48	7
TAP	104	144	2
STR	104	192	5
SV_	104	192	5	96	48	0
TAP	104	240	5
STR	104	288	1
SV_	104	288	1	96	48	4
TAP	104	336	1
STR	105	0	7
SF_	105	0	7	96	48	3
BRK	105	96	7
STR	105	192	0
SF_	105	192	0	96	48	4
BRK	105	288	0
XHO	106	0	3	84
XHO	106	0	7	84
BRK	106	96	2
BRK	106	96	6
XTP	106	108	1
XTP	106	108	5
XTP	106	120	0
XTP	106	120	4
XTP	106	132	3
XTP	106	132	7
STR	106	192	1
SI_	106	192	1	96	48	4
STR	106	192	5
SI_	106	192	5	96	48	0
TAP	106	288	1
TAP	106	288	5
STR	107	0	6
SI_	107	0	6	96	48	3
TAP	107	48	6
STR	107	96	2
SI_	107	96	2	96	48	7
TAP	107	144	2
STR	107	192	5
SI_	107	192	5	96	48	0
TAP	107	240	5
STR	107	288	1
SI_	107	288	1	96	48	4
TAP	107	336	1
STR	108	0	6
SI_	108	0	6	96	48	2
TAP	108	48	6
STR	108	96	7
SI_	108	96	7	96	48	3
TAP	108	144	7
STR	108	192	0
SI_	108	192	0	96	48	4
TAP	108	240	0
STR	108	288	1
SI_	108	288	1	96	48	5
TAP	108	336	1
STR	109	0	2
SI_	109	0	2	96	48	6
TAP	109	48	2
STR	109	96	3
SI_	109	96	3	96	48	7
TAP	109	144	3
TAP	109	192	4
TAP	109	240	4
BRK	109	288	1
BRK	109	288	5
HLD	110	0	2	48
TAP	110	48	3
TAP	110	72	2
TAP	110	96	3
TAP	110	144	1
TAP	110	144	4
TAP	110	192	0
TAP	110	240	1
TAP	110	240	4
TAP	110	288	7
TAP	110	336	3
TAP	110	336	6
HLD	111	0	5	48
TAP	111	48	4
TAP	111	72	5
TAP	111	96	4
TAP	111	144	3
TAP	111	144	6
TAP	111	192	7
TAP	111	240	3
TAP	111	240	6
TAP	111	288	0
TAP	111	336	1
TAP	111	336	4
TAP	112	0	2
TAP	112	0	6
TAP	112	48	2
TAP	112	48	6
TAP	112	96	1
TAP	112	96	5
TAP	112	144	1
TAP	112	144	5
TAP	112	192	0
TAP	112	192	4
TAP	112	240	0
TAP	112	240	4
TAP	112	288	3
TAP	112	288	7
TAP	112	336	3
TAP	112	336	7
TAP	113	0	4
TAP	113	0	6
TAP	113	72	1
TAP	113	72	3
TAP	113	144	0
TAP	113	144	7
STR	113	192	0
SI_	113	192	0	96	48	3
STR	113	192	7
SI_	113	192	7	96	48	4
TAP	113	288	0
TAP	113	288	7
TTP	114	0	0	C	1	M1
TTP	114	0	2	B	0	M1
TTP	114	0	2	E	0	M1
TTP	114	0	5	B	0	M1
TTP	114	0	6	E	0	M1

T_REC_TAP	526
T_REC_BRK	43
T_REC_XTP	72
T_REC_HLD	34
T_REC_XHO	5
T_REC_STR	106
T_REC_BST	9
T_REC_XST	2
T_REC_TTP	30
T_REC_THO	0
T_REC_SLD	119
T_REC_ALL	946
T_NUM_TAP	736
T_NUM_BRK	52
T_NUM_HLD	39
T_NUM_SLD	119
T_NUM_ALL	946
T_JUDGE_TAP	788
T_JUDGE_HLD	195
T_JUDGE_SLD	119
T_JUDGE_ALL	1102
TTM_EACHPAIRS	181
TTM_SCR_TAP	368000
TTM_SCR_BRK	135200
TTM_SCR_HLD	39000
TTM_SCR_SLD	178500
TTM_SCR_ALL	720700
TTM_SCR_S	694050
TTM_SCR_SS	715500
TTM_RAT_ACV	10072

