VERSION	0.00.00	1.03.00
FES_MODE	0
BPM_DEF	200.000	200.000	200.000	200.000
MET_DEF	4	4
RESOLUTION	384
CLK_DEF	384
COMPATIBLE_CODE	MA2

BPM	0	0	200.000
MET	0	0	4	4

STR	2	0	3
SCL	2	0	3	96	1248	5
STR	2	0	4
SCR	2	0	4	96	1248	2
STR	6	0	3
SCL	6	0	3	96	864	5
TAP	6	0	4
TAP	6	192	4
TAP	7	192	4
TAP	8	192	4
STR	9	0	3
SI_	9	0	3	96	96	0
STR	9	0	4
SI_	9	0	4	96	96	7
XTP	9	288	1
XTP	9	288	6
HLD	10	0	5	384
TAP	10	144	4
TAP	10	288	4
HLD	11	0	2	384
TAP	11	144	3
TAP	11	288	3
HLD	12	0	6	288
TAP	12	144	4
STR	12	288	4
SF_	12	288	4	96	96	0
XTP	13	192	7
XTP	13	288	1
XTP	13	288	6
TAP	14	0	2
TAP	14	48	2
TAP	14	96	2
TAP	14	192	3
TAP	14	240	3
TAP	14	288	3
TAP	15	0	4
TAP	15	48	4
TAP	15	96	4
TAP	15	192	5
TAP	15	240	5
TAP	15	288	4
TAP	15	288	5
BRK	16	0	0
HLD	16	0	6	96
TAP	16	96	4
BRK	16	192	1
HLD	16	192	7	96
TAP	16	288	3
BRK	17	0	2
TAP	17	0	5
XTP	17	288	1
XTP	17	288	6
TAP	18	0	4
TAP	18	0	5
TAP	18	96	3
TAP	18	96	7
HLD	18	192	6	96
TAP	18	288	5
TAP	18	336	5
HLD	19	0	6	96
TAP	19	96	4
TAP	19	144	4
TAP	19	192	6
TAP	19	288	6
TAP	19	288	7
HLD	20	0	4	192
TAP	20	0	5
TAP	20	96	7
HLD	20	192	5	192
TAP	20	288	7
TAP	21	0	4
XTP	21	96	0
XTP	21	96	6
HLD	21	192	4	96
TAP	21	192	5
TAP	21	288	7
XTP	22	0	2
XTP	22	0	6
TAP	22	96	0
TAP	22	96	7
HLD	22	192	1	96
TAP	22	192	4
TAP	22	288	2
TAP	22	336	2
HLD	23	0	1	96
TAP	23	96	3
TAP	23	144	3
TAP	23	192	1
TAP	23	288	0
TAP	23	288	1
TAP	24	0	2
HLD	24	0	3	192
TAP	24	96	0
HLD	24	192	2	96
STR	24	288	0
SUL	24	288	0	96	192	7
XTP	25	288	1
XTP	25	288	6
TAP	26	0	3
TAP	26	0	4
STR	26	96	2
SI_	26	96	2	96	48	0
TAP	26	96	4
XTP	26	192	3
TAP	26	288	3
TAP	26	336	3
TAP	27	0	3
STR	27	96	2
SI_	27	96	2	96	48	7
TAP	27	96	4
XTP	27	192	3
TAP	27	288	3
TAP	27	336	3
TAP	28	0	3
STR	28	96	2
SI_	28	96	2	96	48	0
TAP	28	96	4
XTP	28	192	3
TAP	28	288	3
TAP	28	336	3
TAP	29	0	3
STR	29	96	2
SUL	29	96	2	96	96	5
TAP	29	96	4
XTP	29	192	3
TAP	30	0	3
TAP	30	0	4
TAP	30	96	3
STR	30	96	5
SI_	30	96	5	96	48	7
XTP	30	192	4
TAP	30	288	4
TAP	30	336	4
TAP	31	0	4
TAP	31	96	3
STR	31	96	5
SI_	31	96	5	96	48	0
XTP	31	192	4
TAP	31	288	4
TAP	31	336	4
TAP	32	0	4
TAP	32	96	3
STR	32	96	5
SI_	32	96	5	96	48	7
XTP	32	192	4
TAP	32	288	4
TAP	32	336	4
TAP	33	0	3
TAP	33	0	5
XTP	33	96	0
XST	33	96	7
SSR	33	96	7	96	144	3
TAP	34	0	2
TAP	34	96	0
TAP	34	96	4
TAP	34	192	1
TAP	34	240	3
HLD	34	288	3	96
HLD	35	0	1	96
TAP	35	96	2
TAP	35	144	2
TAP	35	192	1
TAP	35	288	0
TAP	35	288	1
TAP	36	0	2
HLD	36	0	3	192
TAP	36	96	0
TAP	36	192	2
TAP	36	240	2
TAP	36	288	0
TAP	36	336	0
TAP	37	0	2
XTP	37	96	1
XTP	37	96	7
TAP	37	192	2
HLD	37	192	3	96
TAP	37	288	0
XTP	38	0	1
XTP	38	0	5
TAP	38	96	0
TAP	38	96	7
TAP	38	192	3
HLD	38	192	6	96
TAP	38	288	5
TAP	38	336	5
HLD	39	0	6	96
TAP	39	96	4
TAP	39	144	4
TAP	39	192	6
TAP	39	288	6
TAP	39	288	7
HLD	40	0	4	192
TAP	40	0	5
TAP	40	96	7
HLD	40	192	5	96
STR	40	288	7
SUR	40	288	7	96	192	0
XTP	41	288	1
XTP	41	288	6
TAP	42	0	3
STR	42	0	5
SI_	42	0	5	96	48	7
XTP	42	96	4
TAP	42	192	4
TAP	42	240	4
TAP	42	288	4
TAP	43	0	3
STR	43	0	5
SI_	43	0	5	96	48	0
XTP	43	96	4
TAP	43	144	4
TAP	43	192	4
TAP	43	288	3
TAP	43	288	4
TAP	44	0	3
STR	44	0	5
SI_	44	0	5	96	48	7
XTP	44	96	4
TAP	44	192	4
TAP	44	240	4
TAP	44	288	4
TAP	45	0	3
STR	45	0	5
SUR	45	0	5	96	96	2
XTP	45	96	4
TAP	45	144	4
TAP	45	192	4
TAP	45	288	3
TAP	45	288	4
STR	46	0	2
SI_	46	0	2	96	48	0
TAP	46	0	4
XTP	46	96	3
TAP	46	192	3
TAP	46	240	3
TAP	46	288	3
STR	47	0	2
SI_	47	0	2	96	48	7
TAP	47	0	4
XTP	47	96	3
TAP	47	192	3
TAP	47	240	3
TAP	47	288	3
STR	48	0	2
SI_	48	0	2	96	48	0
TAP	48	0	4
XTP	48	96	3
TAP	48	192	3
TAP	48	240	3
XTP	48	288	2
XTP	48	288	4
TAP	49	0	6
TAP	49	48	5
TAP	49	96	4
TAP	49	144	3
TAP	49	192	2
TAP	49	240	1
BRK	49	288	0
BRK	49	288	7
STR	50	0	1
SCL	50	0	1	96	528	2
TAP	50	0	6
STR	52	0	3
SV_	52	0	3	96	288	0
SV_	52	0	3	96	288	6
STR	54	0	2
SV_	54	0	2	96	336	4
SLL	54	0	2	96	336	4
STR	56	0	1
SI_	56	0	1	96	264	5
SCL	56	0	1	96	480	2
XTP	57	192	1
STR	58	0	0
SCL	58	0	0	96	480	2
HLD	58	0	2	192
TAP	59	0	1
XTP	59	192	0
STR	60	0	3
SV_	60	0	3	96	192	4
STR	60	0	7
SI_	60	0	7	96	192	4
TAP	61	0	5
XTP	61	192	4
XTP	61	192	6
STR	62	0	5
SV_	62	0	5	96	240	3
SLR	62	0	5	96	240	3
TAP	63	0	2
XTP	63	192	1
XTP	63	192	3
TAP	64	0	6
TAP	64	0	7
TAP	64	96	5
TAP	64	192	3
TAP	64	192	4
TAP	64	288	2
TAP	65	0	0
TAP	65	0	1
TAP	65	96	7
XTP	65	192	1
XTP	65	192	6
HLD	66	0	5	384
TAP	66	144	4
TAP	66	288	4
HLD	67	0	2	384
TAP	67	144	3
TAP	67	288	3
HLD	68	0	6	288
TAP	68	144	4
STR	68	288	4
SF_	68	288	4	96	96	0
XTP	69	192	7
TAP	69	288	1
TAP	69	288	6
TTP	70	0	7	B	0	M1
TTP	70	0	7	E	0	M1
TTP	70	96	5	B	0	M1
TTP	70	96	5	E	0	M1
TTP	70	192	3	E	0	M1
TTP	70	240	3	B	0	M1
TTP	70	288	4	B	0	M1
TTP	71	0	0	B	0	M1
TTP	71	0	1	E	0	M1
TTP	71	96	2	B	0	M1
TTP	71	96	3	E	0	M1
TTP	71	192	5	E	0	M1
TTP	71	240	4	B	0	M1
TTP	71	288	3	B	0	M1
TTP	72	0	7	B	0	M1
TTP	72	0	7	E	0	M1
TTP	72	96	5	B	0	M1
TTP	72	96	5	E	0	M1
TTP	72	192	2	E	0	M1
TTP	72	240	2	B	0	M1
TTP	72	288	3	B	0	M1
TTP	73	0	0	C	0	M1
BST	73	96	0
SF_	73	96	0	96	96	4
HLD	74	0	2	384
TAP	74	144	3
TAP	74	288	3
HLD	75	0	5	384
TAP	75	144	4
TAP	75	288	4
HLD	76	0	1	480
TAP	76	144	3
TAP	76	288	3
STR	77	0	2
SCL	77	0	2	96	192	5
TAP	78	0	1
TAP	78	48	1
TAP	78	96	1
TAP	78	144	1
TAP	78	192	3
TAP	78	240	3
TAP	78	288	3
TAP	78	336	3
TAP	79	0	4
TAP	79	48	4
TAP	79	96	4
TAP	79	144	4
TAP	79	192	6
TAP	79	240	6
TAP	79	288	4
TAP	79	288	6
BRK	80	0	0
HLD	80	0	5	96
TAP	80	96	4
BRK	80	192	1
HLD	80	192	7	96
TAP	80	288	3
BRK	81	0	2
TAP	81	0	5
XTP	81	288	0
XTP	81	288	7
STR	82	0	6
SI_	82	0	6	96	48	2
STR	82	96	3
SCL	82	96	3	96	48	1
STR	82	192	7
SI_	82	192	7	96	48	3
XTP	82	288	0
TAP	83	0	5
TAP	83	48	5
TAP	83	96	4
TAP	83	96	6
TAP	83	192	2
TAP	83	240	2
TAP	83	288	1
TAP	83	288	3
STR	84	0	7
SCL	84	0	7	96	96	2
TAP	84	96	0
STR	84	192	0
SCR	84	192	0	96	96	5
TAP	84	288	7
STR	85	0	6
SI_	85	0	6	96	48	2
BRK	85	96	4
XTP	85	192	7
XTP	85	288	3
XTP	85	288	7
STR	86	0	1
SI_	86	0	1	96	48	5
STR	86	96	4
SCR	86	96	4	96	48	6
STR	86	192	0
SI_	86	192	0	96	48	4
XTP	86	288	7
TAP	87	0	2
TAP	87	48	2
TAP	87	96	1
TAP	87	96	3
TAP	87	192	5
TAP	87	240	5
TAP	87	288	4
TAP	87	288	6
HLD	88	0	1	96
HLD	88	96	3	96
HLD	88	192	4	96
HLD	88	288	6	96
HLD	89	0	3	96
HLD	89	96	0	96
HLD	89	192	7	96
HLD	89	288	4	96
TAP	90	0	3
BRK	90	96	1
BRK	90	96	6
TAP	90	192	5
TAP	90	240	5
HLD	90	288	4	96
TAP	90	288	6
HLD	91	0	0	96
STR	91	96	2
SI_	91	96	2	96	48	6
TAP	91	144	2
XTP	91	192	7
XTP	91	288	4
XTP	91	288	7
TAP	92	0	3
TAP	92	0	5
TAP	92	96	1
TAP	92	96	4
TAP	92	192	2
TAP	92	240	2
TAP	92	288	3
TAP	92	336	3
HLD	93	0	0	96
STR	93	96	2
SI_	93	96	2	96	48	6
TAP	93	144	2
XTP	93	192	0
BRK	93	288	0
BRK	93	288	7
HLD	94	0	4	96
TAP	94	0	6
TAP	94	96	5
XTP	94	192	3
XTP	94	192	6
TAP	95	0	1
HLD	95	0	3	96
TAP	95	96	2
HLD	95	192	3	48
HLD	95	192	4	48
HLD	95	288	3	48
HLD	95	288	4	48
TAP	96	0	2
TAP	96	48	2
TAP	96	96	0
TAP	96	144	0
TAP	96	192	7
TAP	96	240	7
TAP	96	288	5
TAP	96	336	5
STR	97	0	3
SI_	97	0	3	96	96	0
STR	97	0	4
SI_	97	0	4	96	96	7
BRK	97	288	1
BRK	97	288	6
STR	98	0	2
SI_	98	0	2	96	48	5
STR	98	96	6
SI_	98	96	6	96	48	2
STR	98	192	3
SI_	98	192	3	96	48	0
XTP	98	288	4
STR	99	0	5
SI_	99	0	5	96	48	2
STR	99	96	1
SI_	99	96	1	96	48	5
STR	99	192	4
SI_	99	192	4	96	48	7
XTP	99	288	3
STR	100	0	1
SI_	100	0	1	96	48	4
STR	100	96	0
SI_	100	96	0	96	48	5
STR	100	192	1
SI_	100	192	1	96	48	4
STR	100	288	0
SI_	100	288	0	96	48	5
TAP	101	0	3
TAP	101	96	2
TAP	101	96	6
TAP	101	192	4
TAP	101	288	1
TAP	101	288	5
STR	102	0	6
SI_	102	0	6	96	48	1
STR	102	96	2
SI_	102	96	2	96	48	6
STR	102	192	7
SI_	102	192	7	96	48	4
XTP	102	288	0
STR	103	0	1
SI_	103	0	1	96	48	6
STR	103	96	5
SI_	103	96	5	96	48	1
STR	103	192	0
SI_	103	192	0	96	48	3
XTP	103	288	7
STR	104	0	6
SI_	104	0	6	96	48	3
STR	104	96	7
SI_	104	96	7	96	48	2
STR	104	192	6
SI_	104	192	6	96	48	3
STR	104	288	7
SI_	104	288	7	96	48	2
TAP	105	0	4
TAP	105	96	1
TAP	105	96	5
TAP	105	192	3
TAP	105	288	2
TAP	105	288	6
TAP	106	0	3
HLD	106	0	4	96
BRK	106	96	0
STR	106	192	2
SLL	106	192	2	96	96	3
TAP	106	288	4
STR	107	0	5
SLR	107	0	5	96	96	4
TAP	107	96	3
STR	107	192	2
SLL	107	192	2	96	96	3
TAP	107	288	4
STR	108	0	6
SLL	108	0	6	96	96	7
TAP	108	96	7
STR	108	192	1
SLR	108	192	1	96	96	0
TAP	108	288	0
STR	109	0	4
SI_	109	0	4	96	48	7
STR	109	96	0
SI_	109	96	0	96	48	3
SI_	109	96	0	96	48	5
TAP	109	288	2
TAP	109	288	6
STR	110	0	3
SCL	110	0	3	96	48	0
BRK	110	96	7
STR	110	192	4
SCR	110	192	4	96	48	7
BRK	110	288	0
STR	111	0	3
SCL	111	0	3	96	48	0
BRK	111	96	7
STR	111	192	4
SCR	111	192	4	96	48	7
BRK	111	288	0
STR	112	0	1
SI_	112	0	1	96	48	4
BRK	112	96	0
STR	112	192	6
SI_	112	192	6	96	48	3
BRK	112	288	7
XTP	113	0	0
XTP	113	96	1
XTP	113	96	6
TAP	113	192	2
TAP	113	216	1
TAP	113	240	0
TAP	113	264	7
BST	113	288	6
SF_	113	288	6	96	768	2

T_REC_TAP	263
T_REC_BRK	22
T_REC_XTP	65
T_REC_HLD	49
T_REC_XHO	0
T_REC_STR	78
T_REC_BST	2
T_REC_XST	1
T_REC_TTP	22
T_REC_THO	0
T_REC_SLD	86
T_REC_ALL	588
T_NUM_TAP	429
T_NUM_BRK	24
T_NUM_HLD	49
T_NUM_SLD	86
T_NUM_ALL	588
T_JUDGE_TAP	453
T_JUDGE_HLD	158
T_JUDGE_SLD	86
T_JUDGE_ALL	697
TTM_EACHPAIRS	95
TTM_SCR_TAP	214500
TTM_SCR_BRK	62400
TTM_SCR_HLD	49000
TTM_SCR_SLD	129000
TTM_SCR_ALL	454900
TTM_SCR_S	438950
TTM_SCR_SS	452500
TTM_RAT_ACV	10053

