VERSION	0.00.00	1.03.00
FES_MODE	0
BPM_DEF	200.000	200.000	200.000	200.000
MET_DEF	4	4
RESOLUTION	384
CLK_DEF	384
COMPATIBLE_CODE	MA2

BPM	0	0	200.000
MET	0	0	4	4

HLD	2	0	5	384
HLD	3	0	4	384
HLD	4	0	3	384
XTP	5	0	2
TAP	5	192	1
TAP	5	192	4
HLD	6	0	1	384
HLD	7	0	0	384
HLD	8	0	7	384
XTP	9	0	6
TAP	9	192	4
TAP	9	192	5
TAP	10	0	2
TAP	10	192	2
TAP	10	192	3
TAP	11	0	5
TAP	11	192	4
TAP	11	192	5
TAP	12	0	2
TAP	12	192	2
TAP	12	192	3
TAP	13	0	3
TAP	13	0	4
TAP	13	192	2
TAP	13	192	5
TAP	14	0	3
TAP	14	96	3
TAP	14	192	2
TAP	14	288	2
TAP	15	0	1
TAP	15	96	1
TAP	15	192	0
TAP	15	288	0
TAP	16	0	7
TAP	16	48	7
TAP	16	96	7
TAP	16	192	0
TAP	16	240	0
TAP	16	288	0
BST	17	0	1
SI_	17	0	1	96	144	4
BST	17	0	6
SI_	17	0	6	96	144	3
HLD	18	0	2	192
TAP	18	192	3
TAP	19	0	2
TAP	19	96	2
TAP	19	192	2
TAP	19	192	3
HLD	20	0	5	192
TAP	20	192	4
TAP	21	0	5
TAP	21	96	5
TAP	21	192	4
TAP	21	192	5
HLD	22	0	6	192
TAP	22	192	7
TAP	23	0	6
TAP	23	96	6
TAP	23	192	6
TAP	23	192	7
TAP	24	0	0
TAP	24	96	0
TAP	24	192	7
TAP	24	288	7
TAP	25	0	0
TAP	25	0	7
TAP	25	96	0
TAP	25	96	7
XTP	25	192	1
XTP	25	192	6
TAP	26	0	5
TAP	26	96	5
TAP	26	192	4
TAP	26	288	4
TAP	27	0	4
TAP	27	0	5
TAP	27	96	4
TAP	27	96	5
TAP	27	192	3
TAP	27	192	6
TAP	28	0	2
TAP	28	96	2
TAP	28	192	3
TAP	28	288	3
TAP	29	0	2
TAP	29	0	3
XTP	29	96	2
XTP	29	96	3
XTP	29	192	1
XTP	29	192	4
TAP	30	0	1
TAP	30	96	1
TAP	30	192	0
TAP	30	288	0
TAP	31	0	0
TAP	31	0	1
TAP	31	96	0
TAP	31	96	1
TAP	31	192	2
TAP	31	192	7
TAP	32	0	7
TAP	32	96	7
TAP	32	192	0
TAP	32	288	0
TAP	33	0	0
TAP	33	0	7
TAP	33	96	0
TAP	33	96	7
BRK	33	192	1
BRK	33	192	6
TTP	34	0	0	B	0	L1
TTP	34	0	1	B	0	L1
TTP	35	0	2	B	0	L1
TTP	35	0	3	B	0	L1
TTP	36	0	4	B	0	L1
TTP	36	0	5	B	0	L1
TTP	37	0	6	B	0	L1
TTP	37	0	7	B	0	L1
XST	38	0	1
SI_	38	0	1	96	144	4
STR	39	0	5
SI_	39	0	5	96	144	2
STR	40	0	1
SI_	40	0	1	96	144	5
TAP	41	0	6
TAP	41	96	6
TAP	41	192	0
TAP	41	192	7
TTP	42	0	6	B	0	L1
TTP	42	0	7	B	0	L1
TTP	43	0	4	B	0	L1
TTP	43	0	5	B	0	L1
TTP	44	0	2	B	0	L1
TTP	44	0	3	B	0	L1
TTP	45	0	0	B	0	L1
TTP	45	0	1	B	0	L1
XST	46	0	7
SI_	46	0	7	96	144	4
STR	47	0	3
SI_	47	0	3	96	144	0
STR	48	0	7
SI_	48	0	7	96	144	4
TAP	49	0	3
TAP	49	96	3
TAP	49	96	4
TAP	49	192	2
TAP	49	192	5
TTP	50	0	0	C	1	L1
HLD	52	0	2	384
TAP	53	0	3
TAP	53	192	4
HLD	54	0	5	384
TAP	55	0	4
TAP	55	192	3
HLD	56	0	2	384
TAP	57	0	3
XTP	57	192	1
XTP	57	192	4
HLD	58	0	1	192
XTP	58	192	0
HLD	59	0	6	192
XTP	59	192	7
HLD	60	0	5	192
XTP	60	192	4
HLD	61	0	3	96
HLD	61	0	4	96
XTP	61	192	2
XTP	61	192	5
HLD	62	0	6	192
XTP	62	192	7
HLD	63	0	1	192
XTP	63	192	0
HLD	64	0	2	192
XTP	64	192	3
TAP	65	0	3
TAP	65	0	4
TAP	65	96	2
TAP	65	96	5
BRK	65	192	1
BRK	65	192	6
STR	66	0	0
SCR	66	0	0	96	432	5
STR	68	0	7
SCL	68	0	7	96	432	2
TAP	70	0	1
TAP	70	96	1
TAP	70	192	0
TAP	71	0	6
TAP	71	96	6
TAP	71	192	7
TAP	72	0	0
TAP	72	96	0
TAP	72	192	7
TAP	72	288	7
TAP	73	0	0
TAP	73	0	7
XTP	73	96	0
XTP	73	96	7
TAP	73	192	1
TAP	73	192	6
HLD	74	0	2	384
HLD	75	0	3	384
HLD	76	0	4	384
HLD	77	0	5	192
TAP	78	0	6
TAP	78	96	6
TAP	78	192	7
TAP	78	288	7
TAP	79	0	0
TAP	79	96	0
TAP	79	192	1
TAP	79	288	1
TAP	80	0	2
TAP	80	48	2
TAP	80	96	2
TAP	80	192	3
TAP	80	240	3
TAP	80	288	3
BST	81	0	3
SI_	81	0	3	96	144	7
BST	81	0	4
SI_	81	0	4	96	144	0
TAP	82	0	6
TAP	82	96	6
TAP	82	192	7
TAP	82	288	7
TAP	83	0	0
TAP	83	0	1
TAP	83	96	0
TAP	83	96	1
TAP	83	192	2
TAP	83	192	7
TAP	84	0	1
TAP	84	96	1
TAP	84	192	0
TAP	84	288	0
TAP	85	0	6
TAP	85	0	7
TAP	85	96	6
TAP	85	96	7
TAP	85	192	0
TAP	85	192	5
TAP	86	0	5
TAP	86	96	5
TAP	86	192	4
TAP	86	288	4
TAP	87	0	2
TAP	87	0	3
TAP	87	96	2
TAP	87	96	3
TAP	87	192	1
TAP	87	192	4
TAP	88	0	3
TAP	88	96	3
TAP	88	192	4
TAP	88	288	4
TAP	89	0	3
TAP	89	0	4
TAP	89	96	3
TAP	89	96	4
XTP	89	192	2
XTP	89	192	5
TTP	90	0	3	B	0	L1
TTP	90	192	2	B	0	L1
TTP	91	0	1	B	0	L1
TTP	91	192	0	B	0	L1
TTP	92	0	7	B	0	L1
TTP	92	192	6	B	0	L1
TTP	93	0	5	B	0	L1
TTP	93	192	4	B	0	L1
STR	94	0	3
SCL	94	0	3	96	144	0
STR	95	0	7
SCL	95	0	7	96	144	4
XTP	96	0	3
TAP	96	96	2
TAP	96	192	1
TAP	96	288	0
TAP	97	0	0
TAP	97	0	7
TAP	97	96	0
TAP	97	96	7
BRK	97	192	1
BRK	97	192	6
TAP	98	0	2
TAP	98	96	2
TAP	98	96	3
TAP	98	192	5
TAP	98	288	4
TAP	98	288	5
TAP	99	0	6
TAP	99	96	6
TAP	99	96	7
TAP	99	192	1
TAP	99	288	0
TAP	99	288	1
TAP	100	0	2
TAP	100	96	2
TAP	100	96	3
TAP	100	192	5
TAP	100	288	4
TAP	100	288	5
TAP	101	0	3
TAP	101	0	4
TAP	101	96	3
TAP	101	96	4
XTP	101	192	2
XTP	101	192	5
TAP	102	0	6
TAP	102	96	6
TAP	102	96	7
TAP	102	192	1
TAP	102	288	0
TAP	102	288	1
TAP	103	0	2
TAP	103	96	2
TAP	103	96	3
TAP	103	192	5
TAP	103	288	4
TAP	103	288	5
TAP	104	0	6
TAP	104	96	6
TAP	104	96	7
TAP	104	192	1
TAP	104	288	0
TAP	104	288	1
TAP	105	0	0
TAP	105	0	7
TAP	105	96	0
TAP	105	96	7
BRK	105	192	1
BRK	105	192	6
TAP	106	0	4
TAP	106	0	5
BRK	106	96	4
BRK	106	96	5
TAP	106	192	6
TAP	106	192	7
TAP	106	288	6
TAP	106	288	7
TAP	107	0	0
TAP	107	0	1
TAP	107	96	0
TAP	107	96	1
TAP	107	192	2
TAP	107	192	3
TAP	107	288	2
TAP	107	288	3
TAP	108	0	4
TAP	108	0	5
TAP	108	96	4
TAP	108	96	5
TAP	108	192	6
TAP	108	192	7
TAP	108	288	6
TAP	108	288	7
TAP	109	0	0
TAP	109	0	1
TAP	109	96	2
TAP	109	96	7
XTP	109	192	3
XTP	109	192	6
TAP	110	0	2
TAP	110	48	2
TAP	110	96	2
TAP	110	192	1
TAP	110	240	1
TAP	110	288	1
TAP	111	0	0
TAP	111	48	0
TAP	111	96	0
TAP	111	192	7
TAP	111	240	7
TAP	111	288	7
TAP	112	0	6
TAP	112	48	6
TAP	112	96	6
TAP	112	192	5
TAP	112	240	5
TAP	112	288	5
TAP	113	0	3
TAP	113	0	4
TAP	113	96	3
TAP	113	96	4
TAP	113	192	2
TAP	113	192	5
TAP	113	288	2
TAP	113	288	5
BRK	114	0	1
BRK	114	0	6

T_REC_TAP	275
T_REC_BRK	12
T_REC_XTP	27
T_REC_HLD	24
T_REC_XHO	0
T_REC_STR	8
T_REC_BST	4
T_REC_XST	2
T_REC_TTP	25
T_REC_THO	0
T_REC_SLD	14
T_REC_ALL	391
T_NUM_TAP	337
T_NUM_BRK	16
T_NUM_HLD	24
T_NUM_SLD	14
T_NUM_ALL	391
T_JUDGE_TAP	353
T_JUDGE_HLD	140
T_JUDGE_SLD	14
T_JUDGE_ALL	507
TTM_EACHPAIRS	92
TTM_SCR_TAP	168500
TTM_SCR_BRK	41600
TTM_SCR_HLD	24000
TTM_SCR_SLD	21000
TTM_SCR_ALL	255100
TTM_SCR_S	245900
TTM_SCR_SS	253500
TTM_RAT_ACV	10063

