VERSION	0.00.00	1.03.00
FES_MODE	0
BPM_DEF	200.000	200.000	200.000	200.000
MET_DEF	4	4
RESOLUTION	384
CLK_DEF	384
COMPATIBLE_CODE	MA2

BPM	0	0	200.000
MET	0	0	4	4

XTP	6	0	7
TAP	7	0	7
TAP	8	0	0
TAP	9	0	0
TAP	10	0	7
TAP	11	0	6
TAP	12	0	5
XTP	13	0	4
TAP	14	0	3
TAP	15	0	2
TAP	16	0	1
XTP	17	0	0
XTP	17	0	7
XTP	18	0	0
TAP	18	192	0
TAP	19	0	0
TAP	20	0	1
TAP	20	192	1
TAP	21	0	1
TAP	22	0	2
TAP	22	192	2
TAP	23	0	2
TAP	24	0	3
TAP	24	192	3
TAP	25	0	3
TAP	25	0	4
TAP	26	0	4
TAP	26	192	4
TAP	27	0	4
TAP	28	0	5
TAP	28	192	5
TAP	29	0	5
TAP	30	0	6
TAP	30	192	6
TAP	31	0	6
TAP	32	0	7
TAP	32	192	7
BRK	33	0	0
BRK	33	0	7
TAP	34	0	7
TAP	34	192	7
TAP	35	0	6
TAP	36	0	5
TAP	36	192	5
TAP	37	0	4
TAP	38	0	3
TAP	38	192	3
TAP	39	0	2
TAP	40	0	1
TAP	40	192	1
XTP	41	0	0
TAP	42	0	0
TAP	42	192	0
TAP	43	0	1
TAP	44	0	2
TAP	44	192	2
TAP	45	0	3
TAP	46	0	4
TAP	46	192	4
TAP	47	0	5
TAP	48	0	6
TAP	48	192	6
BRK	49	0	0
BRK	49	0	7
HLD	50	0	1	384
HLD	52	0	0	384
HLD	54	0	7	384
HLD	56	0	6	384
TAP	58	0	5
TAP	59	0	4
TAP	59	0	5
TAP	60	0	3
TAP	61	0	2
TAP	61	0	3
TAP	62	0	4
TAP	63	0	4
TAP	63	0	5
TAP	64	0	3
TAP	65	0	2
TAP	65	0	3
STR	66	0	4
SI_	66	0	4	96	672	7
TAP	69	0	0
STR	70	0	0
SI_	70	0	0	96	672	3
TAP	73	0	4
TTP	74	0	3	B	0	L1
TTP	75	0	4	B	0	L1
TTP	76	0	2	B	0	L1
TTP	77	0	5	B	0	L1
TTP	78	0	2	E	0	L1
TTP	78	0	3	B	0	L1
TTP	79	0	4	B	0	L1
TTP	79	0	6	E	0	L1
THO	80	0	0	384	C	1	L1
XTP	82	0	7
TAP	82	96	7
TAP	82	192	7
TAP	83	0	6
TAP	83	192	6
TAP	84	0	5
TAP	84	96	5
TAP	84	192	5
TAP	85	0	4
TAP	85	192	3
TAP	85	192	4
TAP	86	0	3
TAP	86	96	3
TAP	86	192	3
TAP	87	0	2
TAP	87	192	2
TAP	88	0	1
TAP	88	96	1
TAP	88	192	1
HLD	89	0	0	192
HLD	89	0	1	192
TAP	90	0	0
TAP	90	96	0
TAP	90	192	0
TAP	91	0	1
TAP	91	192	1
TAP	92	0	2
TAP	92	96	2
TAP	92	192	2
TAP	93	0	3
TAP	93	192	3
TAP	93	192	4
TAP	94	0	4
TAP	94	96	4
TAP	94	192	4
TAP	95	0	5
TAP	95	192	5
TAP	96	0	6
TAP	96	96	6
TAP	96	192	6
BRK	97	0	0
BRK	97	0	7
TAP	98	0	7
TAP	98	96	7
TAP	98	192	7
TAP	99	0	6
TAP	99	96	6
TAP	99	192	6
TAP	100	0	5
TAP	100	96	5
TAP	100	192	5
TAP	101	0	4
TAP	101	96	4
TAP	101	192	3
TAP	101	192	4
TAP	102	0	3
TAP	102	96	3
TAP	102	192	3
TAP	103	0	2
TAP	103	96	2
TAP	103	192	2
TAP	104	0	1
TAP	104	96	1
TAP	104	192	1
TAP	105	0	0
TAP	105	96	0
XTP	105	192	0
XTP	105	192	7
TAP	106	0	1
TAP	106	96	1
TAP	106	192	1
TAP	107	0	2
TAP	107	96	2
TAP	107	192	2
TAP	107	192	3
TAP	108	0	4
TAP	108	96	4
TAP	108	192	4
TAP	109	0	5
TAP	109	96	5
TAP	109	192	4
TAP	109	192	5
TAP	110	0	6
TAP	110	96	6
TAP	110	192	6
TAP	110	192	7
TAP	111	0	1
TAP	111	96	1
XTP	111	192	0
XTP	111	192	1
TAP	112	0	0
TAP	112	0	7
TAP	112	96	0
TAP	112	96	7
XTP	112	192	0
XTP	112	192	7
TAP	113	0	1
TAP	113	0	6
TAP	113	96	1
TAP	113	96	6
XTP	113	192	1
XTP	113	192	6
BRK	114	0	2
BRK	114	0	5

T_REC_TAP	157
T_REC_BRK	8
T_REC_XTP	15
T_REC_HLD	6
T_REC_XHO	0
T_REC_STR	2
T_REC_BST	0
T_REC_XST	0
T_REC_TTP	8
T_REC_THO	1
T_REC_SLD	2
T_REC_ALL	199
T_NUM_TAP	182
T_NUM_BRK	8
T_NUM_HLD	7
T_NUM_SLD	2
T_NUM_ALL	199
T_JUDGE_TAP	190
T_JUDGE_HLD	48
T_JUDGE_SLD	2
T_JUDGE_ALL	240
TTM_EACHPAIRS	25
TTM_SCR_TAP	91000
TTM_SCR_BRK	20800
TTM_SCR_HLD	7000
TTM_SCR_SLD	3000
TTM_SCR_ALL	121800
TTM_SCR_S	117400
TTM_SCR_SS	121000
TTM_RAT_ACV	10066

